Index
# A B C D E F G H I J K L M N O P Q R S T U V W X Y Z
Tags
Language
Tags
July 2024
Su Mo Tu We Th Fr Sa
30 1 2 3 4 5 6
7 8 9 10 11 12 13
14 15 16 17 18 19 20
21 22 23 24 25 26 27
28 29 30 31 1 2 3

Featured TV Shows


Willow S01E62022

Posted By: Tavaz
Willow S01E62022

Willow S01E62022
MKV | 1280x720 | 中文 / Français / Deutsch / Español / Magyar / Polski / Italiano / Slovenčina / Türkçe / 日本語 / English / Čeština / Português / Română | H264 @ 2032 kbps | E-AC-3 @ 768 kbps | 54 min 14 s | 1.75 GiB
Subtitles: 中文, Français, Deutsch, Suomi, Español, Magyar, Polski, Italiano, Slovenčina, Ελληνικά, Türkçe, 日本語, Svenska, Dansk, English, Nederlands, Română, 한국어, Português, Čeština
Genre: Drama


Many years after the events of the original film, legendary sorcerer Willow leads a group of misfit heroes on a dangerous rescue mission through a world beyond their wildest imaginations.

90ea43f141b248bb8cfdcf8b5b979211.mkv (1.8 GB)



General
Unique ID : 332568512466674724710819705226433649531 (0xFA325D9CADF1383623EB6B5B87F3DB7B)
Complete name : ./90ea43f141b248bb8cfdcf8b5b979211.mkv
Format : Matroska
Format version : Version 4 / Version 2
File size : 1.75 GiB
Duration : 54 min 14 s
Overall bit rate mode : Variable
Overall bit rate : 4 626 kb/s
Movie name : Willow (S01E06)(2022)(WebDl)(HD)(720p)(x264)(Multi 14 lang)(MultiSub) PHDTeam
Encoded date : UTC 2022-12-28 15:21:54
Writing application : mkvmerge v72.0.0 ('Minuano (Six-eight)') 64-bit
Writing library : libebml v1.4.4 + libmatroska v1.7.1
Attachments : cover.png

Video
ID : 1
Format : AVC
Format/Info : Advanced Video Codec
Format profile : High@L3.1
Format settings : CABAC / 4 Ref Frames
Format settings, CABAC : Yes
Format settings, RefFrames : 4 frames
Codec ID : V_MPEG4/ISO/AVC
Duration : 54 min 14 s
Bit rate mode : Variable
Bit rate : 2 032 kb/s
Maximum bit rate : 6 375 kb/s
Width : 1 280 pixels
Height : 720 pixels
Display aspect ratio : 16:9
Frame rate mode : Constant
Frame rate : 24.000 FPS
Color space : YUV
Chroma subsampling : 4:2:0
Bit depth : 8 bits
Scan type : Progressive
Bits/(Pixel*Frame) : 0.092
Stream size : 789 MiB (44%)
Title : Willow (S01E06)(2022)(WebDl)(HD)(720p)(x264)(Multi 14 lang)(MultiSub) PHDTeam
Default : Yes
Forced : No
Color range : Limited
Color primaries : BT.709
Transfer characteristics : BT.709
Matrix coefficients : BT.709

Audio #1
ID : 2
Format : E-AC-3
Format/Info : Enhanced Audio Coding 3
Format profile : E-AC-3+Atmos / E-AC-3
Format settings, Endianness : Big
Codec ID : A_EAC3
Duration : 54 min 14 s
Bit rate mode : Constant
Bit rate : 768 kb/s
Channel(s) : 15 objects / 6 channels
Channel positions : 15 objects / Front: L C R, Side: L R, LFE
Sampling rate : 48.0 kHz
Frame rate : 187.500 FPS (256 SPF)
Compression mode : Lossy
Stream size : 298 MiB (17%)
Language : English
Service kind : Complete Main
Default : Yes
Forced : No

Audio #2
ID : 3
Format : AAC
Format/Info : Advanced Audio Codec
Format profile : LC
Codec ID : A_AAC-2
Duration : 54 min 14 s
Bit rate : 125 kb/s
Channel(s) : 2 channels
Channel positions : Front: L R
Sampling rate : 48.0 kHz
Frame rate : 46.875 FPS (1024 SPF)
Compression mode : Lossy
Stream size : 48.6 MiB (3%)
Language : German
Default : Yes
Forced : No

Audio #3
ID : 4
Format : AAC
Format/Info : Advanced Audio Codec
Format profile : LC
Codec ID : A_AAC-2
Duration : 54 min 14 s
Bit rate : 125 kb/s
Channel(s) : 2 channels
Channel positions : Front: L R
Sampling rate : 48.0 kHz
Frame rate : 46.875 FPS (1024 SPF)
Compression mode : Lossy
Stream size : 48.6 MiB (3%)
Language : English
Default : Yes
Forced : No

Audio #4
ID : 5
Format : AAC
Format/Info : Advanced Audio Codec
Format profile : LC
Codec ID : A_AAC-2
Duration : 54 min 14 s
Bit rate : 125 kb/s
Channel(s) : 2 channels
Channel positions : Front: L R
Sampling rate : 48.0 kHz
Frame rate : 46.875 FPS (1024 SPF)
Compression mode : Lossy
Stream size : 48.6 MiB (3%)
Language : Spanish
Default : Yes
Forced : No

Audio #5
ID : 6
Format : AAC
Format/Info : Advanced Audio Codec
Format profile : LC
Codec ID : A_AAC-2
Duration : 54 min 14 s
Bit rate : 125 kb/s
Channel(s) : 2 channels
Channel positions : Front: L R
Sampling rate : 48.0 kHz
Frame rate : 46.875 FPS (1024 SPF)
Compression mode : Lossy
Stream size : 48.6 MiB (3%)
Language : French
Default : Yes
Forced : No

Audio #6
ID : 7
Format : AAC
Format/Info : Advanced Audio Codec
Format profile : LC
Codec ID : A_AAC-2
Duration : 54 min 14 s
Bit rate : 125 kb/s
Channel(s) : 2 channels
Channel positions : Front: L R
Sampling rate : 48.0 kHz
Frame rate : 46.875 FPS (1024 SPF)
Compression mode : Lossy
Stream size : 48.6 MiB (3%)
Language : Italian
Default : Yes
Forced : No

Audio #7
ID : 8
Format : AAC
Format/Info : Advanced Audio Codec
Format profile : LC
Codec ID : A_AAC-2
Duration : 54 min 14 s
Bit rate : 125 kb/s
Channel(s) : 2 channels
Channel positions : Front: L R
Sampling rate : 48.0 kHz
Frame rate : 46.875 FPS (1024 SPF)
Compression mode : Lossy
Stream size : 48.6 MiB (3%)
Language : Japanese
Default : Yes
Forced : No

Audio #8
ID : 9
Format : AAC
Format/Info : Advanced Audio Codec
Format profile : LC
Codec ID : A_AAC-2
Duration : 54 min 14 s
Bit rate : 125 kb/s
Channel(s) : 2 channels
Channel positions : Front: L R
Sampling rate : 48.0 kHz
Frame rate : 46.875 FPS (1024 SPF)
Compression mode : Lossy
Stream size : 48.6 MiB (3%)
Language : Hungarian
Default : Yes
Forced : No

Audio #9
ID : 10
Format : AAC
Format/Info : Advanced Audio Codec
Format profile : LC
Codec ID : A_AAC-2
Duration : 54 min 14 s
Bit rate : 125 kb/s
Channel(s) : 2 channels
Channel positions : Front: L R
Sampling rate : 48.0 kHz
Frame rate : 46.875 FPS (1024 SPF)
Compression mode : Lossy
Stream size : 48.6 MiB (3%)
Language : Chinese
Default : Yes
Forced : No

Audio #10
ID : 11
Format : AAC
Format/Info : Advanced Audio Codec
Format profile : LC
Codec ID : A_AAC-2
Duration : 54 min 14 s
Bit rate : 125 kb/s
Channel(s) : 2 channels
Channel positions : Front: L R
Sampling rate : 48.0 kHz
Frame rate : 46.875 FPS (1024 SPF)
Compression mode : Lossy
Stream size : 48.6 MiB (3%)
Language : Polish
Default : Yes
Forced : No

Audio #11
ID : 12
Format : AAC
Format/Info : Advanced Audio Codec
Format profile : LC
Codec ID : A_AAC-2
Duration : 54 min 14 s
Bit rate : 125 kb/s
Channel(s) : 2 channels
Channel positions : Front: L R
Sampling rate : 48.0 kHz
Frame rate : 46.875 FPS (1024 SPF)
Compression mode : Lossy
Stream size : 48.6 MiB (3%)
Language : Portuguese
Default : Yes
Forced : No

Audio #12
ID : 13
Format : AAC
Format/Info : Advanced Audio Codec
Format profile : LC
Codec ID : A_AAC-2
Duration : 54 min 14 s
Bit rate : 125 kb/s
Channel(s) : 2 channels
Channel positions : Front: L R
Sampling rate : 48.0 kHz
Frame rate : 46.875 FPS (1024 SPF)
Compression mode : Lossy
Stream size : 48.6 MiB (3%)
Language : Romanian
Default : Yes
Forced : No

Audio #13
ID : 14
Format : AAC
Format/Info : Advanced Audio Codec
Format profile : LC
Codec ID : A_AAC-2
Duration : 54 min 14 s
Bit rate : 125 kb/s
Channel(s) : 2 channels
Channel positions : Front: L R
Sampling rate : 48.0 kHz
Frame rate : 46.875 FPS (1024 SPF)
Compression mode : Lossy
Stream size : 48.6 MiB (3%)
Language : Slovak
Default : Yes
Forced : No

Audio #14
ID : 15
Format : AAC
Format/Info : Advanced Audio Codec
Format profile : LC
Codec ID : A_AAC-2
Duration : 54 min 14 s
Bit rate : 125 kb/s
Channel(s) : 2 channels
Channel positions : Front: L R
Sampling rate : 48.0 kHz
Frame rate : 46.875 FPS (1024 SPF)
Compression mode : Lossy
Stream size : 48.6 MiB (3%)
Language : Turkish
Default : Yes
Forced : No

Audio #15
ID : 16
Format : AAC
Format/Info : Advanced Audio Codec
Format profile : LC
Codec ID : A_AAC-2
Duration : 54 min 14 s
Bit rate : 125 kb/s
Channel(s) : 2 channels
Channel positions : Front: L R
Sampling rate : 48.0 kHz
Frame rate : 46.875 FPS (1024 SPF)
Compression mode : Lossy
Stream size : 48.6 MiB (3%)
Language : Czech
Default : Yes
Forced : No

Text #1
ID : 17
Format : UTF-8
Codec ID : S_TEXT/UTF8
Codec ID/Info : UTF-8 Plain Text
Duration : 51 min 16 s
Bit rate : 72 b/s
Count of elements : 902
Stream size : 27.3 KiB (0%)
Title : English (SDH)
Language : English
Default : No
Forced : No

Text #2
ID : 18
Format : UTF-8
Codec ID : S_TEXT/UTF8
Codec ID/Info : UTF-8 Plain Text
Duration : 54 min 5 s
Bit rate : 50 b/s
Count of elements : 753
Stream size : 20.0 KiB (0%)
Title : Čeština
Language : Czech
Default : No
Forced : No

Text #3
ID : 19
Format : UTF-8
Codec ID : S_TEXT/UTF8
Codec ID/Info : UTF-8 Plain Text
Duration : 54 min 5 s
Bit rate : 51 b/s
Count of elements : 500
Stream size : 20.4 KiB (0%)
Title : Dansk
Language : Danish
Default : No
Forced : No

Text #4
ID : 20
Format : UTF-8
Codec ID : S_TEXT/UTF8
Codec ID/Info : UTF-8 Plain Text
Duration : 54 min 5 s
Bit rate : 58 b/s
Count of elements : 749
Stream size : 23.3 KiB (0%)
Title : Deutsch
Language : German
Default : No
Forced : No

Text #5
ID : 21
Format : UTF-8
Codec ID : S_TEXT/UTF8
Codec ID/Info : UTF-8 Plain Text
Duration : 54 min 5 s
Bit rate : 98 b/s
Count of elements : 753
Stream size : 39.1 KiB (0%)
Title : Greek
Language : Greek
Default : No
Forced : No

Text #6
ID : 22
Format : UTF-8
Codec ID : S_TEXT/UTF8
Codec ID/Info : UTF-8 Plain Text
Duration : 54 min 5 s
Bit rate : 55 b/s
Count of elements : 754
Stream size : 22.1 KiB (0%)
Title : Español
Language : Spanish
Default : No
Forced : No

Text #7
ID : 23
Format : UTF-8
Codec ID : S_TEXT/UTF8
Codec ID/Info : UTF-8 Plain Text
Duration : 54 min 5 s
Bit rate : 54 b/s
Count of elements : 755
Stream size : 21.6 KiB (0%)
Title : Español (Latinoamericano)
Language : Spanish
Default : No
Forced : No

Text #8
ID : 24
Format : UTF-8
Codec ID : S_TEXT/UTF8
Codec ID/Info : UTF-8 Plain Text
Duration : 54 min 5 s
Bit rate : 56 b/s
Count of elements : 751
Stream size : 22.3 KiB (0%)
Title : Suomi
Language : Finnish
Default : No
Forced : No

Text #9
ID : 25
Format : UTF-8
Codec ID : S_TEXT/UTF8
Codec ID/Info : UTF-8 Plain Text
Duration : 54 min 5 s
Bit rate : 48 b/s
Count of elements : 730
Stream size : 19.3 KiB (0%)
Title : Français
Language : French
Default : No
Forced : No

Text #10
ID : 26
Format : UTF-8
Codec ID : S_TEXT/UTF8
Codec ID/Info : UTF-8 Plain Text
Duration : 54 min 5 s
Bit rate : 52 b/s
Count of elements : 755
Stream size : 20.7 KiB (0%)
Title : Magyar
Language : Hungarian
Default : No
Forced : No

Text #11
ID : 27
Format : UTF-8
Codec ID : S_TEXT/UTF8
Codec ID/Info : UTF-8 Plain Text
Duration : 54 min 5 s
Bit rate : 58 b/s
Count of elements : 756
Stream size : 23.1 KiB (0%)
Title : Italiano
Language : Italian
Default : No
Forced : No

Text #12
ID : 28
Format : UTF-8
Codec ID : S_TEXT/UTF8
Codec ID/Info : UTF-8 Plain Text
Duration : 54 min 5 s
Bit rate : 52 b/s
Count of elements : 717
Stream size : 20.9 KiB (0%)
Title : Japanese
Language : Japanese
Default : No
Forced : No

Text #13
ID : 29
Format : UTF-8
Codec ID : S_TEXT/UTF8
Codec ID/Info : UTF-8 Plain Text
Duration : 54 min 5 s
Bit rate : 64 b/s
Count of elements : 755
Stream size : 25.7 KiB (0%)
Title : Korean
Language : Korean
Default : No
Forced : No

Text #14
ID : 30
Format : UTF-8
Codec ID : S_TEXT/UTF8
Codec ID/Info : UTF-8 Plain Text
Duration : 54 min 5 s
Bit rate : 52 b/s
Count of elements : 671
Stream size : 20.9 KiB (0%)
Title : Nederlands
Language : Dutch
Default : No
Forced : No

Text #15
ID : 31
Format : UTF-8
Codec ID : S_TEXT/UTF8
Codec ID/Info : UTF-8 Plain Text
Duration : 54 min 5 s
Bit rate : 52 b/s
Count of elements : 755
Stream size : 20.8 KiB (0%)
Title : Norsk
Language : Norwegian
Default : No
Forced : No

Text #16
ID : 32
Format : UTF-8
Codec ID : S_TEXT/UTF8
Codec ID/Info : UTF-8 Plain Text
Duration : 54 min 5 s
Bit rate : 57 b/s
Count of elements : 750
Stream size : 22.8 KiB (0%)
Title : Polski
Language : Polish
Default : No
Forced : No

Text #17
ID : 33
Format : UTF-8
Codec ID : S_TEXT/UTF8
Codec ID/Info : UTF-8 Plain Text
Duration : 54 min 5 s
Bit rate : 55 b/s
Count of elements : 753
Stream size : 21.9 KiB (0%)
Title : Português
Language : Portuguese
Default : No
Forced : No

Text #18
ID : 34
Format : UTF-8
Codec ID : S_TEXT/UTF8
Codec ID/Info : UTF-8 Plain Text
Duration : 54 min 5 s
Bit rate : 58 b/s
Count of elements : 755
Stream size : 23.0 KiB (0%)
Title : Português (Brasil)
Language : Portuguese
Default : No
Forced : No

Text #19
ID : 35
Format : UTF-8
Codec ID : S_TEXT/UTF8
Codec ID/Info : UTF-8 Plain Text
Duration : 54 min 5 s
Bit rate : 54 b/s
Count of elements : 754
Stream size : 21.6 KiB (0%)
Title : Română
Language : Romanian
Default : No
Forced : No

Text #20
ID : 36
Format : UTF-8
Codec ID : S_TEXT/UTF8
Codec ID/Info : UTF-8 Plain Text
Duration : 54 min 5 s
Bit rate : 52 b/s
Count of elements : 755
Stream size : 20.8 KiB (0%)
Title : Slovenčina
Language : Slovak
Default : No
Forced : No

Text #21
ID : 37
Format : UTF-8
Codec ID : S_TEXT/UTF8
Codec ID/Info : UTF-8 Plain Text
Duration : 54 min 5 s
Bit rate : 54 b/s
Count of elements : 544
Stream size : 21.6 KiB (0%)
Title : Svenska
Language : Swedish
Default : No
Forced : No

Text #22
ID : 38
Format : UTF-8
Codec ID : S_TEXT/UTF8
Codec ID/Info : UTF-8 Plain Text
Duration : 54 min 5 s
Bit rate : 57 b/s
Count of elements : 754
Stream size : 22.8 KiB (0%)
Title : Türkçe
Language : Turkish
Default : No
Forced : No

Text #23
ID : 39
Format : UTF-8
Codec ID : S_TEXT/UTF8
Codec ID/Info : UTF-8 Plain Text
Duration : 54 min 5 s
Bit rate : 50 b/s
Count of elements : 756
Stream size : 20.0 KiB (0%)
Language : Chinese
Default : No
Forced : No

Text #24
ID : 40
Format : UTF-8
Codec ID : S_TEXT/UTF8
Codec ID/Info : UTF-8 Plain Text
Duration : 54 min 5 s
Bit rate : 52 b/s
Count of elements : 756
Stream size : 20.8 KiB (0%)
Language : Chinese
Default : No
Forced : No

Text #25
ID : 41
Format : UTF-8
Codec ID : S_TEXT/UTF8
Codec ID/Info : UTF-8 Plain Text
Duration : 54 min 5 s
Bit rate : 43 b/s
Count of elements : 755
Stream size : 17.3 KiB (0%)
Language : Chinese
Default : No
Forced : No

Text #26
ID : 42
Format : UTF-8
Codec ID : S_TEXT/UTF8
Codec ID/Info : UTF-8 Plain Text
Duration : 1 min 28 s
Bit rate : 8 b/s
Count of elements : 3
Stream size : 90.0 Bytes (0%)
Language : Chinese
Default : No
Forced : No

Text #27
ID : 43
Format : UTF-8
Codec ID : S_TEXT/UTF8
Codec ID/Info : UTF-8 Plain Text
Duration : 1 min 28 s
Bit rate : 6 b/s
Count of elements : 2
Stream size : 68.0 Bytes (0%)
Language : Czech
Default : No
Forced : No

Text #28
ID : 44
Format : UTF-8
Codec ID : S_TEXT/UTF8
Codec ID/Info : UTF-8 Plain Text
Duration : 54 min 5 s
Bit rate : 51 b/s
Count of elements : 500
Stream size : 20.4 KiB (0%)
Language : Danish
Default : No
Forced : No

Text #29
ID : 45
Format : UTF-8
Codec ID : S_TEXT/UTF8
Codec ID/Info : UTF-8 Plain Text
Duration : 1 min 28 s
Bit rate : 5 b/s
Count of elements : 2
Stream size : 56.0 Bytes (0%)
Language : German
Default : No
Forced : No

Text #30
ID : 46
Format : UTF-8
Codec ID : S_TEXT/UTF8
Codec ID/Info : UTF-8 Plain Text
Duration : 54 min 5 s
Bit rate : 58 b/s
Count of elements : 749
Stream size : 23.3 KiB (0%)
Language : German
Default : No
Forced : No

Text #31
ID : 47
Format : UTF-8
Codec ID : S_TEXT/UTF8
Codec ID/Info : UTF-8 Plain Text
Duration : 51 min 16 s
Bit rate : 72 b/s
Count of elements : 902
Stream size : 27.3 KiB (0%)
Language : English
Default : No
Forced : No

Text #32
ID : 48
Format : UTF-8
Codec ID : S_TEXT/UTF8
Codec ID/Info : UTF-8 Plain Text
Duration : 1 min 28 s
Bit rate : 5 b/s
Count of elements : 2
Stream size : 58.0 Bytes (0%)
Language : Spanish
Default : No
Forced : No

Text #33
ID : 49
Format : UTF-8
Codec ID : S_TEXT/UTF8
Codec ID/Info : UTF-8 Plain Text
Duration : 1 min 28 s
Bit rate : 5 b/s
Count of elements : 2
Stream size : 63.0 Bytes (0%)
Language : Spanish
Default : No
Forced : No

Text #34
ID : 50
Format : UTF-8
Codec ID : S_TEXT/UTF8
Codec ID/Info : UTF-8 Plain Text
Duration : 54 min 5 s
Bit rate : 55 b/s
Count of elements : 754
Stream size : 22.1 KiB (0%)
Language : Spanish
Default : No
Forced : No

Text #35
ID : 51
Format : UTF-8
Codec ID : S_TEXT/UTF8
Codec ID/Info : UTF-8 Plain Text
Duration : 54 min 5 s
Bit rate : 54 b/s
Count of elements : 755
Stream size : 21.6 KiB (0%)
Language : Spanish
Default : No
Forced : No

Text #36
ID : 52
Format : UTF-8
Codec ID : S_TEXT/UTF8
Codec ID/Info : UTF-8 Plain Text
Duration : 51 min 17 s
Bit rate : 65 b/s
Count of elements : 836
Stream size : 24.5 KiB (0%)
Language : Spanish
Default : No
Forced : No

Text #37
ID : 53
Format : UTF-8
Codec ID : S_TEXT/UTF8
Codec ID/Info : UTF-8 Plain Text
Duration : 1 min 28 s
Bit rate : 4 b/s
Count of elements : 2
Stream size : 53.0 Bytes (0%)
Language : French
Default : No
Forced : No

Text #38
ID : 54
Format : UTF-8
Codec ID : S_TEXT/UTF8
Codec ID/Info : UTF-8 Plain Text
Duration : 54 min 5 s
Bit rate : 48 b/s
Count of elements : 730
Stream size : 19.3 KiB (0%)
Language : French
Default : No
Forced : No

Text #39
ID : 55
Format : UTF-8
Codec ID : S_TEXT/UTF8
Codec ID/Info : UTF-8 Plain Text
Duration : 54 min 5 s
Bit rate : 98 b/s
Count of elements : 753
Stream size : 39.1 KiB (0%)
Language : Greek
Default : No
Forced : No

Text #40
ID : 56
Format : UTF-8
Codec ID : S_TEXT/UTF8
Codec ID/Info : UTF-8 Plain Text
Duration : 1 min 28 s
Bit rate : 5 b/s
Count of elements : 2
Stream size : 57.0 Bytes (0%)
Language : Hungarian
Default : No
Forced : No

Text #41
ID : 57
Format : UTF-8
Codec ID : S_TEXT/UTF8
Codec ID/Info : UTF-8 Plain Text
Duration : 1 min 28 s
Bit rate : 6 b/s
Count of elements : 3
Stream size : 76.0 Bytes (0%)
Language : Italian
Default : No
Forced : No

Text #42
ID : 58
Format : UTF-8
Codec ID : S_TEXT/UTF8
Codec ID/Info : UTF-8 Plain Text
Duration : 54 min 5 s
Bit rate : 58 b/s
Count of elements : 756
Stream size : 23.1 KiB (0%)
Language : Italian
Default : No
Forced : No

Text #43
ID : 59
Format : UTF-8
Codec ID : S_TEXT/UTF8
Codec ID/Info : UTF-8 Plain Text
Duration : 1 min 28 s
Bit rate : 8 b/s
Count of elements : 3
Stream size : 90.0 Bytes (0%)
Language : Japanese
Default : No
Forced : No

Text #44
ID : 60
Format : UTF-8
Codec ID : S_TEXT/UTF8
Codec ID/Info : UTF-8 Plain Text
Duration : 54 min 5 s
Bit rate : 52 b/s
Count of elements : 717
Stream size : 20.9 KiB (0%)
Language : Japanese
Default : No
Forced : No

Text #45
ID : 61
Format : UTF-8
Codec ID : S_TEXT/UTF8
Codec ID/Info : UTF-8 Plain Text
Duration : 54 min 5 s
Bit rate : 64 b/s
Count of elements : 755
Stream size : 25.7 KiB (0%)
Language : Korean
Default : No
Forced : No

Text #46
ID : 62
Format : UTF-8
Codec ID : S_TEXT/UTF8
Codec ID/Info : UTF-8 Plain Text
Duration : 54 min 5 s
Bit rate : 52 b/s
Count of elements : 755
Stream size : 20.7 KiB (0%)
Language : Hungarian
Default : No
Forced : No

Text #47
ID : 63
Format : UTF-8
Codec ID : S_TEXT/UTF8
Codec ID/Info : UTF-8 Plain Text
Duration : 54 min 5 s
Bit rate : 52 b/s
Count of elements : 671
Stream size : 20.9 KiB (0%)
Language : Dutch
Default : No
Forced : No

Text #48
ID : 64
Format : UTF-8
Codec ID : S_TEXT/UTF8
Codec ID/Info : UTF-8 Plain Text
Duration : 54 min 5 s
Bit rate : 52 b/s
Count of elements : 755
Stream size : 20.8 KiB (0%)
Language : Norwegian
Default : No
Forced : No

Text #49
ID : 65
Format : UTF-8
Codec ID : S_TEXT/UTF8
Codec ID/Info : UTF-8 Plain Text
Duration : 1 min 28 s
Bit rate : 5 b/s
Count of elements : 2
Stream size : 57.0 Bytes (0%)
Language : Polish
Default : No
Forced : No

Text #50
ID : 66
Format : UTF-8
Codec ID : S_TEXT/UTF8
Codec ID/Info : UTF-8 Plain Text
Duration : 54 min 5 s
Bit rate : 57 b/s
Count of elements : 750
Stream size : 22.8 KiB (0%)
Language : Polish
Default : No
Forced : No





Willow S01E62022


Willow S01E62022


Willow S01E62022


Willow S01E62022


Willow S01E62022

All episodes