Index
# A B C D E F G H I J K L M N O P Q R S T U V W X Y Z
Tags
Language
Tags
April 2024
Su Mo Tu We Th Fr Sa
31 1 2 3 4 5 6
7 8 9 10 11 12 13
14 15 16 17 18 19 20
21 22 23 24 25 26 27
28 29 30 1 2 3 4

Featured TV Shows


Silo S01E10

Posted By: Tavaz
720p (HD) / WEBRip IMDb
Silo S01E10

Silo S01E10
WEBRip | MKV | 1356x678 | English | H264 @ 2881 kbps | E-AC-3 @ 768.0 kbps | 44 min 21 s | 1.13 GiB
Subtitles: 日本語, Italiano, ภาษาไทย, English, Eesti keel, हिन्दी, Suomi, Dansk, Ελληνικά, Español, العربية, Français, Русский, Nederlands, Polski, Deutsch, Bahasa Indonesia, Magyar, Svenska, 中文, Slovenščina, Čeština, 한국어, Türkçe, Українська, tiếng Việt, עברית, Български, Português, Slovenčina
Genre: Drama


In a ruined and toxic future, a community exists in a giant underground silo that plunges hundreds of stories deep. There, men and women live in a society full of regulations they believe are meant to protect them.

7380b4ac17a64df9ac1e2885f6a18287.mkv (1.1 GB)



General
Unique ID : 51587901208409999518545006320975325160 (0x26CF77E721A9A8F61E0A71BCF1CBA7E8)
Complete name : ./7380b4ac17a64df9ac1e2885f6a18287.mkv
Format : Matroska
Format version : Version 4
File size : 1.13 GiB
Duration : 44 min 21 s
Overall bit rate : 3 655 kb/s
Writing application : mkvmerge v76.0 ('Celebration') 64-bit
Writing library : libebml v1.4.4 + libmatroska v1.7.1

Video
ID : 1
Format : AVC
Format/Info : Advanced Video Codec
Format profile : High@L3.2
Format settings : CABAC / 5 Ref Frames
Format settings, CABAC : Yes
Format settings, Reference frames : 5 frames
Codec ID : V_MPEG4/ISO/AVC
Duration : 44 min 21 s
Bit rate : 2 881 kb/s
Width : 1 356 pixels
Height : 678 pixels
Display aspect ratio : 2.000
Frame rate mode : Constant
Frame rate : 23.976 (24000/1001) FPS
Color space : YUV
Chroma subsampling : 4:2:0
Bit depth : 8 bits
Scan type : Progressive
Bits/(Pixel*Frame) : 0.131
Stream size : 914 MiB (79%)
Language : English
Default : Yes
Forced : No
Color range : Limited
Color primaries : BT.709
Transfer characteristics : BT.709
Matrix coefficients : BT.709

Audio
ID : 2
Format : E-AC-3 JOC
Format/Info : Enhanced AC-3 with Joint Object Coding
Commercial name : Dolby Digital Plus with Dolby Atmos
Codec ID : A_EAC3
Duration : 44 min 21 s
Bit rate mode : Constant
Bit rate : 768 kb/s
Channel(s) : 6 channels
Channel layout : L R C LFE Ls Rs
Sampling rate : 48.0 kHz
Frame rate : 31.250 FPS (1536 SPF)
Compression mode : Lossy
Stream size : 244 MiB (21%)
Language : English
Service kind : Complete Main
Default : Yes
Forced : No
Complexity index : 16
Number of dynamic objects : 15
Bed channel count : 1 channel
Bed channel configuration : LFE

Text #1
ID : 3
Format : UTF-8
Codec ID : S_TEXT/UTF8
Codec ID/Info : UTF-8 Plain Text
Duration : 40 min 44 s
Bit rate : 41 b/s
Frame rate : 0.156 FPS
Count of elements : 382
Stream size : 12.4 KiB (0%)
Title : English
Language : English
Default : No
Forced : No

Text #2
ID : 4
Format : UTF-8
Codec ID : S_TEXT/UTF8
Codec ID/Info : UTF-8 Plain Text
Duration : 42 min 36 s
Bit rate : 46 b/s
Frame rate : 0.176 FPS
Count of elements : 449
Stream size : 14.6 KiB (0%)
Title : English (SDH)
Language : English
Default : No
Forced : No

Text #3
ID : 5
Format : UTF-8
Codec ID : S_TEXT/UTF8
Codec ID/Info : UTF-8 Plain Text
Duration : 44 min 0 s
Bit rate : 56 b/s
Frame rate : 0.151 FPS
Count of elements : 400
Stream size : 18.2 KiB (0%)
Title : العربية
Language : Arabic
Default : No
Forced : No

Text #4
ID : 6
Format : UTF-8
Codec ID : S_TEXT/UTF8
Codec ID/Info : UTF-8 Plain Text
Duration : 44 min 0 s
Bit rate : 55 b/s
Frame rate : 0.130 FPS
Count of elements : 343
Stream size : 17.8 KiB (0%)
Title : български
Language : Bulgarian
Default : No
Forced : No

Text #5
ID : 7
Format : UTF-8
Codec ID : S_TEXT/UTF8
Codec ID/Info : UTF-8 Plain Text
Duration : 44 min 0 s
Bit rate : 35 b/s
Frame rate : 0.141 FPS
Count of elements : 372
Stream size : 11.5 KiB (0%)
Title : Čeština
Language : Czech
Default : No
Forced : No

Text #6
ID : 8
Format : UTF-8
Codec ID : S_TEXT/UTF8
Codec ID/Info : UTF-8 Plain Text
Duration : 44 min 0 s
Bit rate : 38 b/s
Frame rate : 0.140 FPS
Count of elements : 369
Stream size : 12.5 KiB (0%)
Title : dansk
Language : Danish
Default : No
Forced : No

Text #7
ID : 9
Format : UTF-8
Codec ID : S_TEXT/UTF8
Codec ID/Info : UTF-8 Plain Text
Duration : 44 min 6 s
Bit rate : 37 b/s
Frame rate : 0.150 FPS
Count of elements : 396
Stream size : 12.0 KiB (0%)
Title : Deutsch
Language : German
Default : No
Forced : No

Text #8
ID : 10
Format : UTF-8
Codec ID : S_TEXT/UTF8
Codec ID/Info : UTF-8 Plain Text
Duration : 44 min 0 s
Bit rate : 64 b/s
Frame rate : 0.148 FPS
Count of elements : 391
Stream size : 20.8 KiB (0%)
Title : Ελληνικά
Language : Greek
Default : No
Forced : No

Text #9
ID : 11
Format : UTF-8
Codec ID : S_TEXT/UTF8
Codec ID/Info : UTF-8 Plain Text
Duration : 44 min 0 s
Bit rate : 40 b/s
Frame rate : 0.150 FPS
Count of elements : 395
Stream size : 13.0 KiB (0%)
Title : Español (España)
Language : Spanish
Default : No
Forced : No

Text #10
ID : 12
Format : UTF-8
Codec ID : S_TEXT/UTF8
Codec ID/Info : UTF-8 Plain Text
Duration : 44 min 0 s
Bit rate : 40 b/s
Frame rate : 0.149 FPS
Count of elements : 394
Stream size : 13.1 KiB (0%)
Title : Español (Latinoamérica)
Language : Spanish
Default : No
Forced : No

Text #11
ID : 13
Format : UTF-8
Codec ID : S_TEXT/UTF8
Codec ID/Info : UTF-8 Plain Text
Duration : 44 min 0 s
Bit rate : 36 b/s
Frame rate : 0.147 FPS
Count of elements : 387
Stream size : 11.9 KiB (0%)
Title : eesti
Language : Estonian
Default : No
Forced : No

Text #12
ID : 14
Format : UTF-8
Codec ID : S_TEXT/UTF8
Codec ID/Info : UTF-8 Plain Text
Duration : 44 min 0 s
Bit rate : 35 b/s
Frame rate : 0.141 FPS
Count of elements : 373
Stream size : 11.5 KiB (0%)
Title : Suomi
Language : Finnish
Default : No
Forced : No

Text #13
ID : 15
Format : UTF-8
Codec ID : S_TEXT/UTF8
Codec ID/Info : UTF-8 Plain Text
Duration : 44 min 4 s
Bit rate : 37 b/s
Frame rate : 0.165 FPS
Count of elements : 435
Stream size : 12.1 KiB (0%)
Title : Français (France)
Language : French
Default : No
Forced : No

Text #14
ID : 16
Format : UTF-8
Codec ID : S_TEXT/UTF8
Codec ID/Info : UTF-8 Plain Text
Duration : 44 min 4 s
Bit rate : 37 b/s
Frame rate : 0.165 FPS
Count of elements : 435
Stream size : 12.1 KiB (0%)
Title : Français (Canada)
Language : French
Default : No
Forced : No

Text #15
ID : 17
Format : UTF-8
Codec ID : S_TEXT/UTF8
Codec ID/Info : UTF-8 Plain Text
Duration : 44 min 0 s
Bit rate : 56 b/s
Frame rate : 0.151 FPS
Count of elements : 400
Stream size : 18.3 KiB (0%)
Title : עברית
Language : Hebrew
Default : No
Forced : No

Text #16
ID : 18
Format : UTF-8
Codec ID : S_TEXT/UTF8
Codec ID/Info : UTF-8 Plain Text
Duration : 44 min 0 s
Bit rate : 105 b/s
Frame rate : 0.152 FPS
Count of elements : 401
Stream size : 34.1 KiB (0%)
Title : हिन्दी
Language : Hindi
Default : No
Forced : No

Text #17
ID : 19
Format : UTF-8
Codec ID : S_TEXT/UTF8
Codec ID/Info : UTF-8 Plain Text
Duration : 44 min 0 s
Bit rate : 37 b/s
Frame rate : 0.149 FPS
Count of elements : 393
Stream size : 12.1 KiB (0%)
Title : magyar
Language : Hungarian
Default : No
Forced : No

Text #18
ID : 20
Format : UTF-8
Codec ID : S_TEXT/UTF8
Codec ID/Info : UTF-8 Plain Text
Duration : 44 min 0 s
Bit rate : 40 b/s
Frame rate : 0.151 FPS
Count of elements : 398
Stream size : 13.0 KiB (0%)
Title : Bahasa Indonesia
Language : Indonesian
Default : No
Forced : No

Text #19
ID : 21
Format : UTF-8
Codec ID : S_TEXT/UTF8
Codec ID/Info : UTF-8 Plain Text
Duration : 43 min 25 s
Bit rate : 41 b/s
Frame rate : 0.154 FPS
Count of elements : 401
Stream size : 13.2 KiB (0%)
Title : Italiano
Language : Italian
Default : No
Forced : No

Text #20
ID : 22
Format : UTF-8
Codec ID : S_TEXT/UTF8
Codec ID/Info : UTF-8 Plain Text
Duration : 44 min 0 s
Bit rate : 34 b/s
Frame rate : 0.153 FPS
Count of elements : 405
Stream size : 11.1 KiB (0%)
Title : 日本語
Language : Japanese
Default : No
Forced : No

Text #21
ID : 23
Format : UTF-8
Codec ID : S_TEXT/UTF8
Codec ID/Info : UTF-8 Plain Text
Duration : 44 min 0 s
Bit rate : 46 b/s
Frame rate : 0.152 FPS
Count of elements : 401
Stream size : 15.1 KiB (0%)
Title : 한국어
Language : Korean
Default : No
Forced : No

Text #22
ID : 24
Format : UTF-8
Codec ID : S_TEXT/UTF8
Codec ID/Info : UTF-8 Plain Text
Duration : 44 min 0 s
Bit rate : 38 b/s
Frame rate : 0.151 FPS
Count of elements : 400
Stream size : 12.4 KiB (0%)
Title : lietuvių
Language : Lithuanian
Default : No
Forced : No

Text #23
ID : 25
Format : UTF-8
Codec ID : S_TEXT/UTF8
Codec ID/Info : UTF-8 Plain Text
Duration : 44 min 0 s
Bit rate : 40 b/s
Frame rate : 0.146 FPS
Count of elements : 385
Stream size : 13.2 KiB (0%)
Title : latviešu
Language : Latvian
Default : No
Forced : No

Text #24
ID : 26
Format : UTF-8
Codec ID : S_TEXT/UTF8
Codec ID/Info : UTF-8 Plain Text
Duration : 44 min 0 s
Bit rate : 38 b/s
Frame rate : 0.151 FPS
Count of elements : 399
Stream size : 12.3 KiB (0%)
Title : Bahasa Melayu
Language : Malay
Default : No
Forced : No

Text #25
ID : 27
Format : UTF-8
Codec ID : S_TEXT/UTF8
Codec ID/Info : UTF-8 Plain Text
Duration : 44 min 0 s
Bit rate : 35 b/s
Frame rate : 0.126 FPS
Count of elements : 333
Stream size : 11.5 KiB (0%)
Title : Nederlands
Language : Dutch
Default : No
Forced : No

Text #26
ID : 28
Format : UTF-8
Codec ID : S_TEXT/UTF8
Codec ID/Info : UTF-8 Plain Text
Duration : 44 min 0 s
Bit rate : 33 b/s
Frame rate : 0.122 FPS
Count of elements : 322
Stream size : 10.9 KiB (0%)
Title : norsk
Language : Norwegian
Default : No
Forced : No

Text #27
ID : 29
Format : UTF-8
Codec ID : S_TEXT/UTF8
Codec ID/Info : UTF-8 Plain Text
Duration : 44 min 0 s
Bit rate : 35 b/s
Frame rate : 0.143 FPS
Count of elements : 378
Stream size : 11.5 KiB (0%)
Title : polski
Language : Polish
Default : No
Forced : No

Text #28
ID : 30
Format : UTF-8
Codec ID : S_TEXT/UTF8
Codec ID/Info : UTF-8 Plain Text
Duration : 44 min 0 s
Bit rate : 39 b/s
Frame rate : 0.150 FPS
Count of elements : 395
Stream size : 12.8 KiB (0%)
Title : Português
Language : Portuguese
Default : No
Forced : No

Text #29
ID : 31
Format : UTF-8
Codec ID : S_TEXT/UTF8
Codec ID/Info : UTF-8 Plain Text
Duration : 44 min 0 s
Bit rate : 36 b/s
Frame rate : 0.146 FPS
Count of elements : 386
Stream size : 11.9 KiB (0%)
Title : Português (Brasil)
Language : Portuguese
Default : No
Forced : No

Text #30
ID : 32
Format : UTF-8
Codec ID : S_TEXT/UTF8
Codec ID/Info : UTF-8 Plain Text
Duration : 44 min 0 s
Bit rate : 60 b/s
Frame rate : 0.149 FPS
Count of elements : 393
Stream size : 19.4 KiB (0%)
Title : Русский
Language : Russian
Default : No
Forced : No

Text #31
ID : 33
Format : UTF-8
Codec ID : S_TEXT/UTF8
Codec ID/Info : UTF-8 Plain Text
Duration : 44 min 0 s
Bit rate : 35 b/s
Frame rate : 0.151 FPS
Count of elements : 398
Stream size : 11.3 KiB (0%)
Title : Slovenčina
Language : Slovak
Default : No
Forced : No

Text #32
ID : 34
Format : UTF-8
Codec ID : S_TEXT/UTF8
Codec ID/Info : UTF-8 Plain Text
Duration : 44 min 0 s
Bit rate : 32 b/s
Frame rate : 0.140 FPS
Count of elements : 369
Stream size : 10.4 KiB (0%)
Title : slovenščina
Language : Slovenian
Default : No
Forced : No

Text #33
ID : 35
Format : UTF-8
Codec ID : S_TEXT/UTF8
Codec ID/Info : UTF-8 Plain Text
Duration : 44 min 0 s
Bit rate : 38 b/s
Frame rate : 0.150 FPS
Count of elements : 397
Stream size : 12.5 KiB (0%)
Title : Svenska
Language : Swedish
Default : No
Forced : No

Text #34
ID : 36
Format : UTF-8
Codec ID : S_TEXT/UTF8
Codec ID/Info : UTF-8 Plain Text
Duration : 44 min 0 s
Bit rate : 125 b/s
Frame rate : 0.151 FPS
Count of elements : 400
Stream size : 40.5 KiB (0%)
Title : தமிழ்
Language : Tamil
Default : No
Forced : No

Text #35
ID : 37
Format : UTF-8
Codec ID : S_TEXT/UTF8
Codec ID/Info : UTF-8 Plain Text
Duration : 44 min 0 s
Bit rate : 118 b/s
Frame rate : 0.151 FPS
Count of elements : 400
Stream size : 38.2 KiB (0%)
Title : తెలుగు
Language : Telugu
Default : No
Forced : No

Text #36
ID : 38
Format : UTF-8
Codec ID : S_TEXT/UTF8
Codec ID/Info : UTF-8 Plain Text
Duration : 44 min 0 s
Bit rate : 100 b/s
Frame rate : 0.151 FPS
Count of elements : 400
Stream size : 32.4 KiB (0%)
Title : ไทย
Language : Thai
Default : No
Forced : No

Text #37
ID : 39
Format : UTF-8
Codec ID : S_TEXT/UTF8
Codec ID/Info : UTF-8 Plain Text
Duration : 44 min 0 s
Bit rate : 39 b/s
Frame rate : 0.144 FPS
Count of elements : 379
Stream size : 12.6 KiB (0%)
Title : Türkçe
Language : Turkish
Default : No
Forced : No

Text #38
ID : 40
Format : UTF-8
Codec ID : S_TEXT/UTF8
Codec ID/Info : UTF-8 Plain Text
Duration : 44 min 0 s
Bit rate : 57 b/s
Frame rate : 0.151 FPS
Count of elements : 400
Stream size : 18.6 KiB (0%)
Title : українська
Language : Ukrainian
Default : No
Forced : No

Text #39
ID : 41
Format : UTF-8
Codec ID : S_TEXT/UTF8
Codec ID/Info : UTF-8 Plain Text
Duration : 44 min 0 s
Bit rate : 52 b/s
Frame rate : 0.151 FPS
Count of elements : 400
Stream size : 16.9 KiB (0%)
Title : Tiếng Việt
Language : Vietnamese
Default : No
Forced : No

Text #40
ID : 42
Format : UTF-8
Codec ID : S_TEXT/UTF8
Codec ID/Info : UTF-8 Plain Text
Duration : 44 min 0 s
Bit rate : 36 b/s
Frame rate : 0.152 FPS
Count of elements : 401
Stream size : 11.7 KiB (0%)
Title : 廣東話
Language : Chinese
Default : No
Forced : No

Text #41
ID : 43
Format : UTF-8
Codec ID : S_TEXT/UTF8
Codec ID/Info : UTF-8 Plain Text
Duration : 44 min 0 s
Bit rate : 36 b/s
Frame rate : 0.151 FPS
Count of elements : 400
Stream size : 11.6 KiB (0%)
Title : 中文(简体)
Language : Chinese
Default : No
Forced : No

Text #42
ID : 44
Format : UTF-8
Codec ID : S_TEXT/UTF8
Codec ID/Info : UTF-8 Plain Text
Duration : 44 min 0 s
Bit rate : 39 b/s
Frame rate : 0.152 FPS
Count of elements : 401
Stream size : 12.7 KiB (0%)
Title : 中文(繁體)
Language : Chinese
Default : No
Forced : No





Silo S01E10


Silo S01E10


Silo S01E10


Silo S01E10


Silo S01E10

All episodes