Index
# A B C D E F G H I J K L M N O P Q R S T U V W X Y Z
Tags
Language
Tags
February 2024
Su Mo Tu We Th Fr Sa
28 29 30 31 1 2 3
4 5 6 7 8 9 10
11 12 13 14 15 16 17
18 19 20 21 22 23 24
25 26 27 28 29 1 2
Attention❗ To save your time, in order to download anything on this site, you must be registered 👉 HERE. If you do not have a registration yet, it is better to do it right away. ✌

( • )( • ) ( ͡⚆ ͜ʖ ͡⚆ ) (‿ˠ‿)
SpicyMags.xyz

Featured TV Shows


Silo S01E02

Posted By: Tavaz
1080p (FullHD) / WEB-DL IMDb
Silo S01E02

Silo S01E02
WEB-DL | MKV | 1920x960 | English / Italiano | H264 @ 10085 kbps | E-AC-3 @ 768.0 kbps | 49 min 15 s | 4.00 GiB
Subtitles: English, Italiano
Genre: Drama


In a ruined and toxic future, a community exists in a giant underground silo that plunges hundreds of stories deep. There, men and women live in a society full of regulations they believe are meant to protect them.

84517c0ac0e443a18e51b75835fa84ab.mkv (4.0 GB)



General
Unique ID : 188068496235026483476775317340986321138 (0x8D7CACC2EFAFFC521CF189B12180A8F2)
Complete name : ./84517c0ac0e443a18e51b75835fa84ab.mkv
Format : Matroska
Format version : Version 4
File size : 4.00 GiB
Duration : 49 min 15 s
Overall bit rate : 11.6 Mb/s
Encoded date : UTC 2023-05-07 09:51:53
Writing application : mkvmerge v75.0.0 ('Goliath') 64-bit
Writing library : libebml v1.4.4 + libmatroska v1.7.1

Video
ID : 1
Format : AVC
Format/Info : Advanced Video Codec
Format profile : High@L4
Format settings : CABAC / 4 Ref Frames
Format settings, CABAC : Yes
Format settings, Reference frames : 4 frames
Codec ID : V_MPEG4/ISO/AVC
Duration : 49 min 15 s
Bit rate : 10.1 Mb/s
Width : 1 920 pixels
Height : 960 pixels
Display aspect ratio : 2.000
Frame rate mode : Constant
Frame rate : 23.976 (24000/1001) FPS
Color space : YUV
Chroma subsampling : 4:2:0
Bit depth : 8 bits
Scan type : Progressive
Bits/(Pixel*Frame) : 0.228
Stream size : 3.47 GiB (87%)
Language : English
Default : Yes
Forced : No
Color range : Limited
Color primaries : BT.709
Transfer characteristics : BT.709
Matrix coefficients : BT.709

Audio #1
ID : 2
Format : E-AC-3 JOC
Format/Info : Enhanced AC-3 with Joint Object Coding
Commercial name : Dolby Digital Plus with Dolby Atmos
Codec ID : A_EAC3
Duration : 49 min 15 s
Bit rate mode : Constant
Bit rate : 768 kb/s
Channel(s) : 6 channels
Channel layout : L R C LFE Ls Rs
Sampling rate : 48.0 kHz
Frame rate : 31.250 FPS (1536 SPF)
Compression mode : Lossy
Stream size : 271 MiB (7%)
Language : Italian
Service kind : Complete Main
Default : Yes
Forced : No
Complexity index : 16
Number of dynamic objects : 15
Bed channel count : 1 channel
Bed channel configuration : LFE

Audio #2
ID : 3
Format : E-AC-3 JOC
Format/Info : Enhanced AC-3 with Joint Object Coding
Commercial name : Dolby Digital Plus with Dolby Atmos
Codec ID : A_EAC3
Duration : 49 min 15 s
Bit rate mode : Constant
Bit rate : 768 kb/s
Channel(s) : 6 channels
Channel layout : L R C LFE Ls Rs
Sampling rate : 48.0 kHz
Frame rate : 31.250 FPS (1536 SPF)
Compression mode : Lossy
Stream size : 271 MiB (7%)
Language : English
Service kind : Complete Main
Default : No
Forced : No
Complexity index : 16
Number of dynamic objects : 15
Bed channel count : 1 channel
Bed channel configuration : LFE

Text #1
ID : 4
Format : UTF-8
Codec ID : S_TEXT/UTF8
Codec ID/Info : UTF-8 Plain Text
Duration : 29 min 40 s
Bit rate : 1 b/s
Frame rate : 0.006 FPS
Count of elements : 11
Stream size : 419 Bytes (0%)
Title : Forced
Language : Italian
Default : Yes
Forced : Yes

Text #2
ID : 5
Format : UTF-8
Codec ID : S_TEXT/UTF8
Codec ID/Info : UTF-8 Plain Text
Duration : 48 min 32 s
Bit rate : 53 b/s
Frame rate : 0.186 FPS
Count of elements : 543
Stream size : 18.9 KiB (0%)
Language : Italian
Default : No
Forced : No

Text #3
ID : 6
Format : UTF-8
Codec ID : S_TEXT/UTF8
Codec ID/Info : UTF-8 Plain Text
Duration : 48 min 29 s
Bit rate : 60 b/s
Frame rate : 0.230 FPS
Count of elements : 670
Stream size : 21.4 KiB (0%)
Language : Italian
Default : No
Forced : No

Text #4
ID : 7
Format : UTF-8
Codec ID : S_TEXT/UTF8
Codec ID/Info : UTF-8 Plain Text
Duration : 47 min 47 s
Bit rate : 50 b/s
Frame rate : 0.186 FPS
Count of elements : 532
Stream size : 17.8 KiB (0%)
Language : English
Default : No
Forced : No

Text #5
ID : 8
Format : UTF-8
Codec ID : S_TEXT/UTF8
Codec ID/Info : UTF-8 Plain Text
Duration : 47 min 55 s
Bit rate : 59 b/s
Frame rate : 0.215 FPS
Count of elements : 617
Stream size : 20.7 KiB (0%)
Title : SDH
Language : English
Default : No
Forced : No

Menu
00:01:28.213 : en:Chapter 1
00:03:58.171 : en:Intro
00:05:15.129 : en:Chapter 2





Silo S01E02


Silo S01E02


Silo S01E02


Silo S01E02


Silo S01E02

All episodes