Index
# A B C D E F G H I J K L M N O P Q R S T U V W X Y Z
Tags
Language
Tags
July 2024
Su Mo Tu We Th Fr Sa
30 1 2 3 4 5 6
7 8 9 10 11 12 13
14 15 16 17 18 19 20
21 22 23 24 25 26 27
28 29 30 31 1 2 3

Featured TV Shows


Grand Crew S02E01

Posted By: Tavaz
1080p (FullHD) / WEBRip IMDb
Grand Crew S02E01

Grand Crew S02E01
WEBRip | MKV | 1920x1080 | English | H264 @ 10000 kbps | E-AC-3 @ 640.0 kbps | 21 min 28 s | 1.55 GiB
Subtitles: English
Genre: Comedy


A group of young L.A. professionals navigate the ups and downs of life and love. When they’re ready to unpack it all, they meet at their favorite local bar for a “wine down.”

a73cea0179274be590446e0befdefbc1.mkv (1.6 GB)



General
Unique ID : 82654461766231349407468633518990999592 (0x3E2EAB9878B00DA800EFE03F3468C028)
Complete name : ./a73cea0179274be590446e0befdefbc1.mkv
Format : Matroska
Format version : Version 4
File size : 1.55 GiB
Duration : 21 min 28 s
Overall bit rate : 10.3 Mb/s
Writing application : mkvmerge v74.0.0 ('You Oughta Know') 64-bit
Writing library : libebml v1.4.4 + libmatroska v1.7.1

Video
ID : 1
Format : AVC
Format/Info : Advanced Video Codec
Format profile : High@L4
Format settings : CABAC / 4 Ref Frames
Format settings, CABAC : Yes
Format settings, Reference frames : 4 frames
Codec ID : V_MPEG4/ISO/AVC
Duration : 21 min 28 s
Bit rate mode : Constant
Bit rate : 10 000 kb/s
Width : 1 920 pixels
Height : 1 080 pixels
Display aspect ratio : 16:9
Frame rate mode : Constant
Frame rate : 23.976 (24000/1001) FPS
Color space : YUV
Chroma subsampling : 4:2:0
Bit depth : 8 bits
Scan type : Progressive
Bits/(Pixel*Frame) : 0.201
Stream size : 1.45 GiB (94%)
Default : Yes
Forced : No
Color range : Limited
Color primaries : BT.709
Transfer characteristics : BT.709
Matrix coefficients : BT.709

Audio
ID : 2
Format : E-AC-3
Format/Info : Enhanced AC-3
Commercial name : Dolby Digital Plus
Codec ID : A_EAC3
Duration : 21 min 28 s
Bit rate mode : Constant
Bit rate : 640 kb/s
Channel(s) : 6 channels
Channel layout : L R C LFE Ls Rs
Sampling rate : 48.0 kHz
Frame rate : 31.250 FPS (1536 SPF)
Compression mode : Lossy
Stream size : 98.3 MiB (6%)
Language : English
Service kind : Complete Main
Default : Yes
Forced : No

Text #1
ID : 3
Format : UTF-8
Codec ID : S_TEXT/UTF8
Codec ID/Info : UTF-8 Plain Text
Duration : 21 min 21 s
Bit rate : 124 b/s
Frame rate : 0.453 FPS
Count of elements : 580
Stream size : 19.4 KiB (0%)
Language : English
Default : No
Forced : No

Text #2
ID : 4
Format : UTF-8
Codec ID : S_TEXT/UTF8
Codec ID/Info : UTF-8 Plain Text
Duration : 21 min 21 s
Bit rate : 131 b/s
Frame rate : 0.483 FPS
Count of elements : 619
Stream size : 20.5 KiB (0%)
Title : SDH
Language : English
Default : No
Forced : No





Grand Crew S02E01


Grand Crew S02E01


Grand Crew S02E01


Grand Crew S02E01


Grand Crew S02E01

All episodes