Index
# A B C D E F G H I J K L M N O P Q R S T U V W X Y Z
Tags
Language
Tags
July 2024
Su Mo Tu We Th Fr Sa
30 1 2 3 4 5 6
7 8 9 10 11 12 13
14 15 16 17 18 19 20
21 22 23 24 25 26 27
28 29 30 31 1 2 3

Featured TV Shows


Grand Crew S02E10

Posted By: Tavaz
720p (HD) / HDTV IMDb
Grand Crew S02E10

Grand Crew S02E10
HDTV | MKV | 1280x718 | H264 @ 3339 kbps | AC-3 @ 384.0 kbps | 21 min 20 s | 580 MiB
Genre: Comedy


A group of young L.A. professionals navigate the ups and downs of life and love. When they’re ready to unpack it all, they meet at their favorite local bar for a “wine down.”

Grand.Crew.S02E10.720p.HDTV.x264-SYNCOPY.mkv (579.9 MB)



General
Unique ID : 193504011141922513253169343808841978663 (0x919384564B035B529EEC7B8DF1641327)
Complete name : ./Grand.Crew.S02E10.720p.HDTV.x264-SYNCOPY.mkv
Format : Matroska
Format version : Version 4
File size : 580 MiB
Duration : 21 min 20 s
Overall bit rate : 3 799 kb/s
Encoded date : UTC 2023-04-29 00:33:16
Writing application : mkvmerge v19.1.1 ('Syncopy') 64-bit
Writing library : libx264 + libebml + libmatroska + libfastrar

Video
ID : 1
Format : AVC
Format/Info : Advanced Video Codec
Format profile : High@L4.1
Format settings : CABAC / 5 Ref Frames
Format settings, CABAC : Yes
Format settings, Reference frames : 5 frames
Codec ID : V_MPEG4/ISO/AVC
Duration : 21 min 20 s
Bit rate : 3 339 kb/s
Width : 1 280 pixels
Height : 718 pixels
Display aspect ratio : 16:9
Frame rate mode : Constant
Frame rate : 23.976 (24000/1001) FPS
Color space : YUV
Chroma subsampling : 4:2:0
Bit depth : 8 bits
Scan type : Progressive
Bits/(Pixel*Frame) : 0.152
Stream size : 510 MiB (88%)
Writing library : x264 core 164 r3107 a8b68eb
Encoding settings : cabac=1 / ref=5 / deblock=1:0:0 / analyse=0x3:0x113 / me=hex / subme=8 / psy=1 / psy_rd=1.00:0.00 / mixed_ref=1 / me_range=16 / chroma_me=1 / trellis=2 / 8x8dct=1 / cqm=0 / deadzone=21,11 / fast_pskip=1 / chroma_qp_offset=-2 / threads=22 / lookahead_threads=3 / sliced_threads=0 / nr=0 / decimate=1 / interlaced=0 / bluray_compat=0 / constrained_intra=0 / bframes=3 / b_pyramid=2 / b_adapt=1 / b_bias=0 / direct=3 / weightb=1 / open_gop=0 / weightp=2 / keyint=250 / keyint_min=23 / scenecut=40 / intra_refresh=0 / rc_lookahead=50 / rc=crf / mbtree=1 / crf=18.0 / qcomp=0.60 / qpmin=0 / qpmax=69 / qpstep=4 / ip_ratio=1.40 / aq=1:1.00
Default : Yes
Forced : No
Color range : Limited
Matrix coefficients : BT.709

Audio
ID : 2
Format : AC-3
Format/Info : Audio Coding 3
Commercial name : Dolby Digital
Codec ID : A_AC3
Duration : 21 min 20 s
Bit rate mode : Constant
Bit rate : 384 kb/s
Channel(s) : 6 channels
Channel layout : L R C LFE Ls Rs
Sampling rate : 48.0 kHz
Frame rate : 31.250 FPS (1536 SPF)
Compression mode : Lossy
Stream size : 58.6 MiB (10%)
Service kind : Complete Main
Default : Yes
Forced : No





Grand Crew S02E10


Grand Crew S02E10


Grand Crew S02E10


Grand Crew S02E10


Grand Crew S02E10

All episodes