Index
# A B C D E F G H I J K L M N O P Q R S T U V W X Y Z
Tags
Language
Tags
July 2024
Su Mo Tu We Th Fr Sa
30 1 2 3 4 5 6
7 8 9 10 11 12 13
14 15 16 17 18 19 20
21 22 23 24 25 26 27
28 29 30 31 1 2 3

Featured TV Shows


Grand Crew S01E09

Posted By: Tavaz
1080p (FullHD) / WEBRip IMDb
Grand Crew S01E09

Grand Crew S01E09
WEBRip | MKV | 1920x1080 | English | H264 @ 10000 kbps | E-AC-3 @ 640 kbps | 21 min 26 s | 1.53 GiB
Subtitles: English
Genre: Comedy


A group of young L.A. professionals navigate the ups and downs of life and love. When they’re ready to unpack it all, they meet at their favorite local bar for a “wine down.”

502ce874933b4032afc37abee50ab5c7.mkv (1.5 GB)



General
Unique ID : 93280201211246345598468461704190426738 (0x462D1CFF779C6D1CE78C0DFA545CFE72)
Complete name : ./502ce874933b4032afc37abee50ab5c7.mkv
Format : Matroska
Format version : Version 4 / Version 2
File size : 1.53 GiB
Duration : 21 min 26 s
Overall bit rate : 10.2 Mb/s
Encoded date : UTC 2022-03-02 07:53:53
Writing application : mkvmerge v65.0.0 ('Too Much') 64-bit
Writing library : libebml v1.4.2 + libmatroska v1.6.4

Video
ID : 1
Format : AVC
Format/Info : Advanced Video Codec
Format profile : High@L4
Format settings : CABAC / 4 Ref Frames
Format settings, CABAC : Yes
Format settings, RefFrames : 4 frames
Codec ID : V_MPEG4/ISO/AVC
Duration : 21 min 26 s
Bit rate mode : Constant
Bit rate : 10 000 kb/s
Width : 1 920 pixels
Height : 1 080 pixels
Display aspect ratio : 16:9
Frame rate mode : Constant
Frame rate : 23.976 (24000/1001) FPS
Color space : YUV
Chroma subsampling : 4:2:0
Bit depth : 8 bits
Scan type : Progressive
Bits/(Pixel*Frame) : 0.201
Stream size : 1.43 GiB (94%)
Language : English
Default : Yes
Forced : No
Color range : Limited
Color primaries : BT.709
Transfer characteristics : BT.709
Matrix coefficients : BT.709

Audio
ID : 2
Format : E-AC-3
Format/Info : Enhanced Audio Coding 3
Format settings, Endianness : Big
Codec ID : A_EAC3
Duration : 21 min 26 s
Bit rate mode : Constant
Bit rate : 640 kb/s
Channel(s) : 6 channels
Channel positions : Front: L C R, Side: L R, LFE
Sampling rate : 48.0 kHz
Frame rate : 187.500 FPS (256 SPF)
Compression mode : Lossy
Stream size : 98.2 MiB (6%)
Language : English
Service kind : Complete Main
Default : Yes
Forced : No

Text
ID : 3
Format : UTF-8
Codec ID : S_TEXT/UTF8
Codec ID/Info : UTF-8 Plain Text
Duration : 21 min 18 s
Bit rate : 133 b/s
Count of elements : 603
Stream size : 20.8 KiB (0%)
Title : English
Language : English
Default : No
Forced : No





Grand Crew S01E09


Grand Crew S01E09


Grand Crew S01E09


Grand Crew S01E09


Grand Crew S01E09

All episodes