Index
# A B C D E F G H I J K L M N O P Q R S T U V W X Y Z
Tags
Language
Tags
July 2024
Su Mo Tu We Th Fr Sa
30 1 2 3 4 5 6
7 8 9 10 11 12 13
14 15 16 17 18 19 20
21 22 23 24 25 26 27
28 29 30 31 1 2 3

Featured TV Shows


Grand Crew S01E03

Posted By: Tavaz
1080p (FullHD) / WEBRip IMDb
Grand Crew S01E03

Grand Crew S01E03
WEBRip | MKV | 1920x1080 | English | H264 @ 10000 kbps | E-AC-3 @ 640 kbps | 21 min 31 s | 1.57 GiB
Subtitles: English
Genre: Comedy


A group of young L.A. professionals navigating the ups and downs of life and love. When they’re ready to unpack it all, they meet at their favorite local bar for a “wine down.”

a8411d65a6be4cc89df1058283775a1e.mkv (1.6 GB)



General
Unique ID : 274384963447992381606194795332524210018 (0xCE6C9F2A505A725DCB09F38CF1DA7762)
Complete name : ./a8411d65a6be4cc89df1058283775a1e.mkv
Format : Matroska
Format version : Version 4 / Version 2
File size : 1.57 GiB
Duration : 21 min 31 s
Overall bit rate : 10.4 Mb/s
Encoded date : UTC 2022-01-05 05:10:14
Writing application : mkvmerge v60.0.0 ('Are We Copies?') 64-bit
Writing library : libebml v1.4.2 + libmatroska v1.6.4

Video
ID : 1
Format : AVC
Format/Info : Advanced Video Codec
Format profile : High@L4
Format settings : CABAC / 4 Ref Frames
Format settings, CABAC : Yes
Format settings, RefFrames : 4 frames
Codec ID : V_MPEG4/ISO/AVC
Duration : 21 min 31 s
Bit rate mode : Constant
Bit rate : 10 000 kb/s
Width : 1 920 pixels
Height : 1 080 pixels
Display aspect ratio : 16:9
Frame rate mode : Constant
Frame rate : 23.976 (24000/1001) FPS
Color space : YUV
Chroma subsampling : 4:2:0
Bit depth : 8 bits
Scan type : Progressive
Bits/(Pixel*Frame) : 0.201
Stream size : 1.47 GiB (94%)
Default : Yes
Forced : No
Color range : Limited
Color primaries : BT.709
Transfer characteristics : BT.709
Matrix coefficients : BT.709

Audio
ID : 2
Format : E-AC-3
Format/Info : Enhanced Audio Coding 3
Format settings, Endianness : Big
Codec ID : A_EAC3
Duration : 21 min 31 s
Bit rate mode : Constant
Bit rate : 640 kb/s
Channel(s) : 6 channels
Channel positions : Front: L C R, Side: L R, LFE
Sampling rate : 48.0 kHz
Frame rate : 187.500 FPS (256 SPF)
Compression mode : Lossy
Stream size : 98.5 MiB (6%)
Language : English
Service kind : Complete Main
Default : Yes
Forced : No

Text
ID : 3
Format : UTF-8
Codec ID : S_TEXT/UTF8
Codec ID/Info : UTF-8 Plain Text
Duration : 21 min 23 s
Bit rate : 129 b/s
Count of elements : 585
Stream size : 20.4 KiB (0%)
Title : English (United States)
Language : English
Default : No
Forced : No





Grand Crew S01E03


Grand Crew S01E03


Grand Crew S01E03


Grand Crew S01E03


Grand Crew S01E03

All episodes