Index
# A B C D E F G H I J K L M N O P Q R S T U V W X Y Z
Tags
Language
Tags
July 2024
Su Mo Tu We Th Fr Sa
30 1 2 3 4 5 6
7 8 9 10 11 12 13
14 15 16 17 18 19 20
21 22 23 24 25 26 27
28 29 30 31 1 2 3

Featured TV Shows


Grand Crew S01E01

Posted By: Tavaz
720p (HD) / WEB-DL IMDb
Grand Crew S01E01

Grand Crew S01E01
WEB-DL | MKV | 1280x720 | English | H264 @ 3533 kbps | E-AC-3 @ 640 kbps | 21 min 47 s | 651 MiB
Subtitles: English
Genre: Comedy


A group of young L.A. professionals navigating the ups and downs of life and love. When they’re ready to unpack it all, they meet at their favorite local bar for a “wine down.”

Grand.Crew.S01E01.Pilot.720p.AMZN.WEB-DL.DDP5.1.H.264-NTb.mkv (651.0 MB)



General
Unique ID : 123378642907642437597888650734306707060 (0x5CD1DCBEDD70EF5DD30B957D1111C674)
Complete name : ./Grand.Crew.S01E01.Pilot.720p.AMZN.WEB-DL.DDP5.1.H.264-NTb.mkv
Format : Matroska
Format version : Version 4 / Version 2
File size : 651 MiB
Duration : 21 min 47 s
Overall bit rate : 4 175 kb/s
Writing application : mkvmerge v58.0.0 ('Supper's Ready') 64-bit
Writing library : libebml v1.4.2 + libmatroska v1.6.4

Video
ID : 1
Format : AVC
Format/Info : Advanced Video Codec
Format profile : High@L3.1
Format settings : CABAC / 4 Ref Frames
Format settings, CABAC : Yes
Format settings, RefFrames : 4 frames
Codec ID : V_MPEG4/ISO/AVC
Duration : 21 min 47 s
Bit rate mode : Constant
Bit rate : 3 533 kb/s
Nominal bit rate : 6 000 kb/s
Width : 1 280 pixels
Height : 720 pixels
Display aspect ratio : 16:9
Frame rate mode : Constant
Frame rate : 23.976 (24000/1001) FPS
Color space : YUV
Chroma subsampling : 4:2:0
Bit depth : 8 bits
Scan type : Progressive
Bits/(Pixel*Frame) : 0.160
Stream size : 551 MiB (85%)
Default : Yes
Forced : No
Color range : Limited
Color primaries : BT.709
Transfer characteristics : BT.709
Matrix coefficients : BT.709

Audio
ID : 2
Format : E-AC-3
Format/Info : Enhanced Audio Coding 3
Format settings, Endianness : Big
Codec ID : A_EAC3
Duration : 21 min 47 s
Bit rate mode : Constant
Bit rate : 640 kb/s
Channel(s) : 6 channels
Channel positions : Front: L C R, Side: L R, LFE
Sampling rate : 48.0 kHz
Frame rate : 187.500 FPS (256 SPF)
Compression mode : Lossy
Stream size : 99.8 MiB (15%)
Language : English
Service kind : Complete Main
Default : Yes
Forced : No

Text #1
ID : 3
Format : UTF-8
Codec ID : S_TEXT/UTF8
Codec ID/Info : UTF-8 Plain Text
Duration : 21 min 31 s
Bit rate : 124 b/s
Count of elements : 572
Stream size : 19.6 KiB (0%)
Language : English
Default : No
Forced : No

Text #2
ID : 4
Format : UTF-8
Codec ID : S_TEXT/UTF8
Codec ID/Info : UTF-8 Plain Text
Duration : 21 min 31 s
Bit rate : 130 b/s
Count of elements : 606
Stream size : 20.5 KiB (0%)
Title : SDH
Language : English
Default : No
Forced : No





Grand Crew S01E01


Grand Crew S01E01


Grand Crew S01E01


Grand Crew S01E01


Grand Crew S01E01

All episodes