Index
# A B C D E F G H I J K L M N O P Q R S T U V W X Y Z
Tags
Language
Tags
May 2024
Su Mo Tu We Th Fr Sa
28 29 30 1 2 3 4
5 6 7 8 9 10 11
12 13 14 15 16 17 18
19 20 21 22 23 24 25
26 27 28 29 30 31 1

Featured TV Shows


Gen V S01E12023

Posted By: Tavaz
Gen V S01E12023

Gen V S01E12023
MKV | 1920x800 | Italiano / العربية / हिन्दी / English / 日本語 / Türkçe / Català / Bahasa Indonesia / Español / Čeština / עברית / Polski / ภาษาไทย / Magyar / Nederlands / tiếng Việt / Ελληνικά / Română / Deutsch / Français / Português | H265 @ 2089 kbps | E-AC-3 @ 640.0 kbps | 58 min 45 s | 8.11 GiB
Subtitles: Italiano, العربية, हिन्दी, 日本語, Türkçe, Català, Bahasa Indonesia, Español, Čeština, Polski, עברית, ภาษาไทย, Magyar, Nederlands, tiếng Việt, Ελληνικά, Română, Deutsch, Français, Português
Genre: Drama


At America's only college for superheroes, gifted students put their moral boundaries to the test, competing for the university's top ranking, and a chance to join The Seven, Vought International's elite superhero team. When the school's dark secrets come to light, they must decide what kind of heroes they want to become.

Gen.V.S01E012023Hevc1080pWebDLMAX27.lang.AC3.5.1-.640kb.PHDTeam.part1.rar (4.3 GB)
Gen.V.S01E012023Hevc1080pWebDLMAX27.lang.AC3.5.1-.640kb.PHDTeam.part2.rar (3.9 GB)



General
Unique ID : 43692653206573427798222345231217801336 (0x20DEE61F5C586AB6153CD8FEB7D53878)
Complete name : ./e8e98790c326438ca0be2e1d2f7c4833.mkv
Format : Matroska
Format version : Version 4
File size : 8.11 GiB
Duration : 58 min 45 s
Overall bit rate : 19.8 Mb/s
Movie name : Godolkinova univerzita
Description : Gratuluji! Byla jste přijata ke studiu na Godolkinově univerzitě! Jsme nadšeni, že vám můžeme pomoci zdokonalit vaše nadání! Od svého založení v roce 1965 naši školu absolvovali ti nejlepší a nejzářnější superhrdinové světa, včetmě třech členů Sedmičky! A kdo ví? Možná se stanete dalším!
Writing application : Lavf60.3.100
Writing library : Lavf60.3.100
ErrorDetectionType : Per level 1
DATE : 2023
EPISODE_ID : 1
GENRE : Sci-fi;Komedie;Dramata;Dobrodružné
SEASON : 1
SHOW : Gen V

Video
ID : 1
Format : HEVC
Format/Info : High Efficiency Video Coding
Format profile : Main@L4@Main
Codec ID : V_MPEGH/ISO/HEVC
Duration : 58 min 45 s
Bit rate : 2 089 kb/s
Width : 1 920 pixels
Height : 800 pixels
Display aspect ratio : 2.40:1
Frame rate mode : Constant
Frame rate : 23.976 (24000/1001) FPS
Standard : NTSC
Color space : YUV
Chroma subsampling : 4:2:0
Bit depth : 8 bits
Bits/(Pixel*Frame) : 0.057
Stream size : 878 MiB (11%)
Writing library : HEVC Coding
Default : Yes
Forced : No
Color range : Limited
Color primaries : BT.709
Transfer characteristics : BT.709
Matrix coefficients : BT.709
VENDOR_ID : [0][0][0][0]

Audio #1
ID : 2
Format : E-AC-3
Format/Info : Enhanced AC-3
Commercial name : Dolby Digital Plus
Codec ID : A_EAC3
Duration : 58 min 45 s
Bit rate mode : Constant
Bit rate : 640 kb/s
Channel(s) : 6 channels
Channel layout : L R C LFE Ls Rs
Sampling rate : 48.0 kHz
Frame rate : 31.250 FPS (1536 SPF)
Bit depth : 32 bits
Compression mode : Lossy
Stream size : 269 MiB (3%)
Language : Arabic
Service kind : Complete Main
Default : No
Forced : No
VENDOR_ID : [0][0][0][0]

Audio #2
ID : 3
Format : E-AC-3
Format/Info : Enhanced AC-3
Commercial name : Dolby Digital Plus
Codec ID : A_EAC3
Duration : 58 min 45 s
Bit rate mode : Constant
Bit rate : 640 kb/s
Channel(s) : 6 channels
Channel layout : L R C LFE Ls Rs
Sampling rate : 48.0 kHz
Frame rate : 31.250 FPS (1536 SPF)
Bit depth : 32 bits
Compression mode : Lossy
Stream size : 269 MiB (3%)
Language : Catalan
Service kind : Complete Main
Default : No
Forced : No
VENDOR_ID : [0][0][0][0]

Audio #3
ID : 4
Format : E-AC-3
Format/Info : Enhanced AC-3
Commercial name : Dolby Digital Plus
Codec ID : A_EAC3
Duration : 58 min 45 s
Bit rate mode : Constant
Bit rate : 640 kb/s
Channel(s) : 6 channels
Channel layout : L R C LFE Ls Rs
Sampling rate : 48.0 kHz
Frame rate : 31.250 FPS (1536 SPF)
Bit depth : 32 bits
Compression mode : Lossy
Stream size : 269 MiB (3%)
Language : Czech
Service kind : Complete Main
Default : Yes
Forced : No
VENDOR_ID : [0][0][0][0]

Audio #4
ID : 5
Format : E-AC-3
Format/Info : Enhanced AC-3
Commercial name : Dolby Digital Plus
Codec ID : A_EAC3
Duration : 58 min 45 s
Bit rate mode : Constant
Bit rate : 640 kb/s
Channel(s) : 6 channels
Channel layout : L R C LFE Ls Rs
Sampling rate : 48.0 kHz
Frame rate : 31.250 FPS (1536 SPF)
Bit depth : 32 bits
Compression mode : Lossy
Stream size : 269 MiB (3%)
Language : German
Service kind : Complete Main
Default : No
Forced : No
VENDOR_ID : [0][0][0][0]

Audio #5
ID : 6
Format : E-AC-3
Format/Info : Enhanced AC-3
Commercial name : Dolby Digital Plus
Codec ID : A_EAC3
Duration : 58 min 45 s
Bit rate mode : Constant
Bit rate : 640 kb/s
Channel(s) : 6 channels
Channel layout : L R C LFE Ls Rs
Sampling rate : 48.0 kHz
Frame rate : 31.250 FPS (1536 SPF)
Bit depth : 32 bits
Compression mode : Lossy
Stream size : 269 MiB (3%)
Language : Greek
Service kind : Complete Main
Default : No
Forced : No
VENDOR_ID : [0][0][0][0]

Audio #6
ID : 7
Format : E-AC-3
Format/Info : Enhanced AC-3
Commercial name : Dolby Digital Plus
Codec ID : A_EAC3
Duration : 58 min 45 s
Bit rate mode : Constant
Bit rate : 640 kb/s
Channel(s) : 6 channels
Channel layout : L R C LFE Ls Rs
Sampling rate : 48.0 kHz
Frame rate : 31.250 FPS (1536 SPF)
Bit depth : 32 bits
Compression mode : Lossy
Stream size : 269 MiB (3%)
Language : English
Service kind : Complete Main
Default : No
Forced : No
VENDOR_ID : [0][0][0][0]

Audio #7
ID : 8
Format : E-AC-3
Format/Info : Enhanced AC-3
Commercial name : Dolby Digital Plus
Codec ID : A_EAC3
Duration : 58 min 45 s
Bit rate mode : Constant
Bit rate : 640 kb/s
Channel(s) : 6 channels
Channel layout : L R C LFE Ls Rs
Sampling rate : 48.0 kHz
Frame rate : 31.250 FPS (1536 SPF)
Bit depth : 32 bits
Compression mode : Lossy
Stream size : 269 MiB (3%)
Language : Spanish
Service kind : Complete Main
Default : No
Forced : No
VENDOR_ID : [0][0][0][0]

Audio #8
ID : 9
Format : E-AC-3
Format/Info : Enhanced AC-3
Commercial name : Dolby Digital Plus
Codec ID : A_EAC3
Duration : 58 min 45 s
Bit rate mode : Constant
Bit rate : 640 kb/s
Channel(s) : 6 channels
Channel layout : L R C LFE Ls Rs
Sampling rate : 48.0 kHz
Frame rate : 31.250 FPS (1536 SPF)
Bit depth : 32 bits
Compression mode : Lossy
Stream size : 269 MiB (3%)
Service kind : Complete Main
Default : No
Forced : No
VENDOR_ID : [0][0][0][0]

Audio #9
ID : 10
Format : E-AC-3
Format/Info : Enhanced AC-3
Commercial name : Dolby Digital Plus
Codec ID : A_EAC3
Duration : 58 min 45 s
Bit rate mode : Constant
Bit rate : 640 kb/s
Channel(s) : 6 channels
Channel layout : L R C LFE Ls Rs
Sampling rate : 48.0 kHz
Frame rate : 31.250 FPS (1536 SPF)
Bit depth : 32 bits
Compression mode : Lossy
Stream size : 269 MiB (3%)
Language : French
Service kind : Complete Main
Default : No
Forced : No
VENDOR_ID : [0][0][0][0]

Audio #10
ID : 11
Format : E-AC-3
Format/Info : Enhanced AC-3
Commercial name : Dolby Digital Plus
Codec ID : A_EAC3
Duration : 58 min 45 s
Bit rate mode : Constant
Bit rate : 640 kb/s
Channel(s) : 6 channels
Channel layout : L R C LFE Ls Rs
Sampling rate : 48.0 kHz
Frame rate : 31.250 FPS (1536 SPF)
Bit depth : 32 bits
Compression mode : Lossy
Stream size : 269 MiB (3%)
Language : Hebrew
Service kind : Complete Main
Default : No
Forced : No
VENDOR_ID : [0][0][0][0]

Audio #11
ID : 12
Format : E-AC-3
Format/Info : Enhanced AC-3
Commercial name : Dolby Digital Plus
Codec ID : A_EAC3
Duration : 58 min 45 s
Bit rate mode : Constant
Bit rate : 640 kb/s
Channel(s) : 6 channels
Channel layout : L R C LFE Ls Rs
Sampling rate : 48.0 kHz
Frame rate : 31.250 FPS (1536 SPF)
Bit depth : 32 bits
Compression mode : Lossy
Stream size : 269 MiB (3%)
Language : Hindi
Service kind : Complete Main
Default : No
Forced : No
VENDOR_ID : [0][0][0][0]

Audio #12
ID : 13
Format : E-AC-3
Format/Info : Enhanced AC-3
Commercial name : Dolby Digital Plus
Codec ID : A_EAC3
Duration : 58 min 45 s
Bit rate mode : Constant
Bit rate : 640 kb/s
Channel(s) : 6 channels
Channel layout : L R C LFE Ls Rs
Sampling rate : 48.0 kHz
Frame rate : 31.250 FPS (1536 SPF)
Bit depth : 32 bits
Compression mode : Lossy
Stream size : 269 MiB (3%)
Language : Hungarian
Service kind : Complete Main
Default : No
Forced : No
VENDOR_ID : [0][0][0][0]

Audio #13
ID : 14
Format : E-AC-3
Format/Info : Enhanced AC-3
Commercial name : Dolby Digital Plus
Codec ID : A_EAC3
Duration : 58 min 45 s
Bit rate mode : Constant
Bit rate : 640 kb/s
Channel(s) : 6 channels
Channel layout : L R C LFE Ls Rs
Sampling rate : 48.0 kHz
Frame rate : 31.250 FPS (1536 SPF)
Bit depth : 32 bits
Compression mode : Lossy
Stream size : 269 MiB (3%)
Language : Indonesian
Service kind : Complete Main
Default : No
Forced : No
VENDOR_ID : [0][0][0][0]

Audio #14
ID : 15
Format : E-AC-3
Format/Info : Enhanced AC-3
Commercial name : Dolby Digital Plus
Codec ID : A_EAC3
Duration : 58 min 45 s
Bit rate mode : Constant
Bit rate : 640 kb/s
Channel(s) : 6 channels
Channel layout : L R C LFE Ls Rs
Sampling rate : 48.0 kHz
Frame rate : 31.250 FPS (1536 SPF)
Bit depth : 32 bits
Compression mode : Lossy
Stream size : 269 MiB (3%)
Language : Italian
Service kind : Complete Main
Default : No
Forced : No
VENDOR_ID : [0][0][0][0]

Audio #15
ID : 16
Format : E-AC-3
Format/Info : Enhanced AC-3
Commercial name : Dolby Digital Plus
Codec ID : A_EAC3
Duration : 58 min 45 s
Bit rate mode : Constant
Bit rate : 640 kb/s
Channel(s) : 6 channels
Channel layout : L R C LFE Ls Rs
Sampling rate : 48.0 kHz
Frame rate : 31.250 FPS (1536 SPF)
Bit depth : 32 bits
Compression mode : Lossy
Stream size : 269 MiB (3%)
Language : Japanese
Service kind : Complete Main
Default : No
Forced : No
VENDOR_ID : [0][0][0][0]

Audio #16
ID : 17
Format : E-AC-3
Format/Info : Enhanced AC-3
Commercial name : Dolby Digital Plus
Codec ID : A_EAC3
Duration : 58 min 45 s
Bit rate mode : Constant
Bit rate : 640 kb/s
Channel(s) : 6 channels
Channel layout : L R C LFE Ls Rs
Sampling rate : 48.0 kHz
Frame rate : 31.250 FPS (1536 SPF)
Bit depth : 32 bits
Compression mode : Lossy
Stream size : 269 MiB (3%)
Language : Kannada
Service kind : Complete Main
Default : No
Forced : No
VENDOR_ID : [0][0][0][0]

Audio #17
ID : 18
Format : E-AC-3
Format/Info : Enhanced AC-3
Commercial name : Dolby Digital Plus
Codec ID : A_EAC3
Duration : 58 min 45 s
Bit rate mode : Constant
Bit rate : 640 kb/s
Channel(s) : 6 channels
Channel layout : L R C LFE Ls Rs
Sampling rate : 48.0 kHz
Frame rate : 31.250 FPS (1536 SPF)
Bit depth : 32 bits
Compression mode : Lossy
Stream size : 269 MiB (3%)
Language : Malayalam
Service kind : Complete Main
Default : No
Forced : No
VENDOR_ID : [0][0][0][0]

Audio #18
ID : 19
Format : E-AC-3
Format/Info : Enhanced AC-3
Commercial name : Dolby Digital Plus
Codec ID : A_EAC3
Duration : 58 min 45 s
Bit rate mode : Constant
Bit rate : 640 kb/s
Channel(s) : 6 channels
Channel layout : L R C LFE Ls Rs
Sampling rate : 48.0 kHz
Frame rate : 31.250 FPS (1536 SPF)
Bit depth : 32 bits
Compression mode : Lossy
Stream size : 269 MiB (3%)
Language : Malay
Service kind : Complete Main
Default : No
Forced : No
VENDOR_ID : [0][0][0][0]

Audio #19
ID : 20
Format : E-AC-3
Format/Info : Enhanced AC-3
Commercial name : Dolby Digital Plus
Codec ID : A_EAC3
Duration : 58 min 45 s
Bit rate mode : Constant
Bit rate : 640 kb/s
Channel(s) : 6 channels
Channel layout : L R C LFE Ls Rs
Sampling rate : 48.0 kHz
Frame rate : 31.250 FPS (1536 SPF)
Bit depth : 32 bits
Compression mode : Lossy
Stream size : 269 MiB (3%)
Language : Dutch
Service kind : Complete Main
Default : No
Forced : No
VENDOR_ID : [0][0][0][0]

Audio #20
ID : 21
Format : E-AC-3
Format/Info : Enhanced AC-3
Commercial name : Dolby Digital Plus
Codec ID : A_EAC3
Duration : 58 min 45 s
Bit rate mode : Constant
Bit rate : 640 kb/s
Channel(s) : 6 channels
Channel layout : L R C LFE Ls Rs
Sampling rate : 48.0 kHz
Frame rate : 31.250 FPS (1536 SPF)
Bit depth : 32 bits
Compression mode : Lossy
Stream size : 269 MiB (3%)
Language : Polish
Service kind : Complete Main
Default : No
Forced : No
VENDOR_ID : [0][0][0][0]

Audio #21
ID : 22
Format : E-AC-3
Format/Info : Enhanced AC-3
Commercial name : Dolby Digital Plus
Codec ID : A_EAC3
Duration : 58 min 45 s
Bit rate mode : Constant
Bit rate : 640 kb/s
Channel(s) : 6 channels
Channel layout : L R C LFE Ls Rs
Sampling rate : 48.0 kHz
Frame rate : 31.250 FPS (1536 SPF)
Bit depth : 32 bits
Compression mode : Lossy
Stream size : 269 MiB (3%)
Language : Portuguese
Service kind : Complete Main
Default : No
Forced : No
VENDOR_ID : [0][0][0][0]

Audio #22
ID : 23
Format : E-AC-3
Format/Info : Enhanced AC-3
Commercial name : Dolby Digital Plus
Codec ID : A_EAC3
Duration : 58 min 45 s
Bit rate mode : Constant
Bit rate : 640 kb/s
Channel(s) : 6 channels
Channel layout : L R C LFE Ls Rs
Sampling rate : 48.0 kHz
Frame rate : 31.250 FPS (1536 SPF)
Bit depth : 32 bits
Compression mode : Lossy
Stream size : 269 MiB (3%)
Language : Romanian
Service kind : Complete Main
Default : No
Forced : No
VENDOR_ID : [0][0][0][0]

Audio #23
ID : 24
Format : E-AC-3
Format/Info : Enhanced AC-3
Commercial name : Dolby Digital Plus
Codec ID : A_EAC3
Duration : 58 min 45 s
Bit rate mode : Constant
Bit rate : 640 kb/s
Channel(s) : 6 channels
Channel layout : L R C LFE Ls Rs
Sampling rate : 48.0 kHz
Frame rate : 31.250 FPS (1536 SPF)
Bit depth : 32 bits
Compression mode : Lossy
Stream size : 269 MiB (3%)
Language : Tamil
Service kind : Complete Main
Default : No
Forced : No
VENDOR_ID : [0][0][0][0]

Audio #24
ID : 25
Format : E-AC-3
Format/Info : Enhanced AC-3
Commercial name : Dolby Digital Plus
Codec ID : A_EAC3
Duration : 58 min 45 s
Bit rate mode : Constant
Bit rate : 640 kb/s
Channel(s) : 6 channels
Channel layout : L R C LFE Ls Rs
Sampling rate : 48.0 kHz
Frame rate : 31.250 FPS (1536 SPF)
Bit depth : 32 bits
Compression mode : Lossy
Stream size : 269 MiB (3%)
Language : Telugu
Service kind : Complete Main
Default : No
Forced : No
VENDOR_ID : [0][0][0][0]

Audio #25
ID : 26
Format : E-AC-3
Format/Info : Enhanced AC-3
Commercial name : Dolby Digital Plus
Codec ID : A_EAC3
Duration : 58 min 45 s
Bit rate mode : Constant
Bit rate : 640 kb/s
Channel(s) : 6 channels
Channel layout : L R C LFE Ls Rs
Sampling rate : 48.0 kHz
Frame rate : 31.250 FPS (1536 SPF)
Bit depth : 32 bits
Compression mode : Lossy
Stream size : 269 MiB (3%)
Language : Thai
Service kind : Complete Main
Default : No
Forced : No
VENDOR_ID : [0][0][0][0]

Audio #26
ID : 27
Format : E-AC-3
Format/Info : Enhanced AC-3
Commercial name : Dolby Digital Plus
Codec ID : A_EAC3
Duration : 58 min 45 s
Bit rate mode : Constant
Bit rate : 640 kb/s
Channel(s) : 6 channels
Channel layout : L R C LFE Ls Rs
Sampling rate : 48.0 kHz
Frame rate : 31.250 FPS (1536 SPF)
Bit depth : 32 bits
Compression mode : Lossy
Stream size : 269 MiB (3%)
Language : Turkish
Service kind : Complete Main
Default : No
Forced : No
VENDOR_ID : [0][0][0][0]

Audio #27
ID : 28
Format : E-AC-3
Format/Info : Enhanced AC-3
Commercial name : Dolby Digital Plus
Codec ID : A_EAC3
Duration : 58 min 45 s
Bit rate mode : Constant
Bit rate : 640 kb/s
Channel(s) : 6 channels
Channel layout : L R C LFE Ls Rs
Sampling rate : 48.0 kHz
Frame rate : 31.250 FPS (1536 SPF)
Bit depth : 32 bits
Compression mode : Lossy
Stream size : 269 MiB (3%)
Language : Vietnamese
Service kind : Complete Main
Default : No
Forced : No
VENDOR_ID : [0][0][0][0]

Text #1
ID : 29
Format : UTF-8
Codec ID : S_TEXT/UTF8
Codec ID/Info : UTF-8 Plain Text
Duration : 51 min 52 s
Title : Čeština forced narrative
Writing library : Lavc60.3.100 srt
Language : Czech
Default : No
Forced : No

Text #2
ID : 30
Format : UTF-8
Codec ID : S_TEXT/UTF8
Codec ID/Info : UTF-8 Plain Text
Duration : 51 min 52 s
Title : Bahasa Melayu forced narrative
Writing library : Lavc60.3.100 srt
Language : Malay
Default : No
Forced : No

Text #3
ID : 31
Format : UTF-8
Codec ID : S_TEXT/UTF8
Codec ID/Info : UTF-8 Plain Text
Duration : 51 min 52 s
Title : Català forced narrative
Writing library : Lavc60.3.100 srt
Language : Catalan
Default : No
Forced : No

Text #4
ID : 32
Format : UTF-8
Codec ID : S_TEXT/UTF8
Codec ID/Info : UTF-8 Plain Text
Duration : 51 min 52 s
Title : Deutsch forced narrative
Writing library : Lavc60.3.100 srt
Language : German
Default : No
Forced : No

Text #5
ID : 33
Format : UTF-8
Codec ID : S_TEXT/UTF8
Codec ID/Info : UTF-8 Plain Text
Duration : 51 min 52 s
Title : Español (España) forced narrative
Writing library : Lavc60.3.100 srt
Language : Spanish
Default : No
Forced : No

Text #6
ID : 34
Format : UTF-8
Codec ID : S_TEXT/UTF8
Codec ID/Info : UTF-8 Plain Text
Duration : 55 min 14 s
Title : Español (Latinoamérica) forced narrative
Writing library : Lavc60.3.100 srt
Language : Spanish
Default : No
Forced : No

Text #7
ID : 35
Format : UTF-8
Codec ID : S_TEXT/UTF8
Codec ID/Info : UTF-8 Plain Text
Duration : 51 min 52 s
Title : Filipino forced narrative
Writing library : Lavc60.3.100 srt
Default : No
Forced : No

Text #8
ID : 36
Format : UTF-8
Codec ID : S_TEXT/UTF8
Codec ID/Info : UTF-8 Plain Text
Duration : 55 min 14 s
Title : Français (Canada) forced narrative
Writing library : Lavc60.3.100 srt
Language : French
Default : No
Forced : No

Text #9
ID : 37
Format : UTF-8
Codec ID : S_TEXT/UTF8
Codec ID/Info : UTF-8 Plain Text
Duration : 51 min 52 s
Title : Indonesia forced narrative
Writing library : Lavc60.3.100 srt
Language : Indonesian
Default : No
Forced : No

Text #10
ID : 38
Format : UTF-8
Codec ID : S_TEXT/UTF8
Codec ID/Info : UTF-8 Plain Text
Duration : 51 min 52 s
Title : Italiano forced narrative
Writing library : Lavc60.3.100 srt
Language : Italian
Default : No
Forced : No

Text #11
ID : 39
Format : UTF-8
Codec ID : S_TEXT/UTF8
Codec ID/Info : UTF-8 Plain Text
Duration : 51 min 52 s
Title : Magyar forced narrative
Writing library : Lavc60.3.100 srt
Language : Hungarian
Default : No
Forced : No

Text #12
ID : 40
Format : UTF-8
Codec ID : S_TEXT/UTF8
Codec ID/Info : UTF-8 Plain Text
Duration : 51 min 52 s
Title : Nederlands forced narrative
Writing library : Lavc60.3.100 srt
Language : Dutch
Default : No
Forced : No

Text #13
ID : 41
Format : UTF-8
Codec ID : S_TEXT/UTF8
Codec ID/Info : UTF-8 Plain Text
Duration : 9 min 59 s
Title : Polski forced narrative
Writing library : Lavc60.3.100 srt
Language : Polish
Default : No
Forced : No

Text #14
ID : 42
Format : UTF-8
Codec ID : S_TEXT/UTF8
Codec ID/Info : UTF-8 Plain Text
Duration : 51 min 52 s
Title : Português (Brasil) forced narrative
Writing library : Lavc60.3.100 srt
Language : Portuguese
Default : No
Forced : No

Text #15
ID : 43
Format : UTF-8
Codec ID : S_TEXT/UTF8
Codec ID/Info : UTF-8 Plain Text
Duration : 55 min 14 s
Title : Português (Portugal) forced narrative
Writing library : Lavc60.3.100 srt
Language : Portuguese
Default : No
Forced : No

Text #16
ID : 44
Format : UTF-8
Codec ID : S_TEXT/UTF8
Codec ID/Info : UTF-8 Plain Text
Duration : 51 min 52 s
Title : Română forced narrative
Writing library : Lavc60.3.100 srt
Language : Romanian
Default : No
Forced : No

Text #17
ID : 45
Format : UTF-8
Codec ID : S_TEXT/UTF8
Codec ID/Info : UTF-8 Plain Text
Duration : 53 min 12 s
Title : Tiếng Việt forced narrative
Writing library : Lavc60.3.100 srt
Language : Vietnamese
Default : No
Forced : No

Text #18
ID : 46
Format : UTF-8
Codec ID : S_TEXT/UTF8
Codec ID/Info : UTF-8 Plain Text
Duration : 51 min 52 s
Title : Türkçe forced narrative
Writing library : Lavc60.3.100 srt
Language : Turkish
Default : No
Forced : No

Text #19
ID : 47
Format : UTF-8
Codec ID : S_TEXT/UTF8
Codec ID/Info : UTF-8 Plain Text
Duration : 51 min 52 s
Title : Ελληνικά forced narrative
Writing library : Lavc60.3.100 srt
Language : Greek
Default : No
Forced : No

Text #20
ID : 48
Format : UTF-8
Codec ID : S_TEXT/UTF8
Codec ID/Info : UTF-8 Plain Text
Duration : 53 min 12 s
Title : עברית forced narrative
Writing library : Lavc60.3.100 srt
Language : Hebrew
Default : No
Forced : No

Text #21
ID : 49
Format : UTF-8
Codec ID : S_TEXT/UTF8
Codec ID/Info : UTF-8 Plain Text
Duration : 53 min 12 s
Title : العربية forced narrative
Writing library : Lavc60.3.100 srt
Language : Arabic
Default : No
Forced : No

Text #22
ID : 50
Format : UTF-8
Codec ID : S_TEXT/UTF8
Codec ID/Info : UTF-8 Plain Text
Duration : 53 min 12 s
Title : हिन्दी forced narrative
Writing library : Lavc60.3.100 srt
Language : Hindi
Default : No
Forced : No

Text #23
ID : 51
Format : UTF-8
Codec ID : S_TEXT/UTF8
Codec ID/Info : UTF-8 Plain Text
Duration : 53 min 12 s
Title : தமிழ் forced narrative
Writing library : Lavc60.3.100 srt
Language : Tamil
Default : No
Forced : No

Text #24
ID : 52
Format : UTF-8
Codec ID : S_TEXT/UTF8
Codec ID/Info : UTF-8 Plain Text
Duration : 53 min 12 s
Title : తెలుగు forced narrative
Writing library : Lavc60.3.100 srt
Language : Telugu
Default : No
Forced : No

Text #25
ID : 53
Format : UTF-8
Codec ID : S_TEXT/UTF8
Codec ID/Info : UTF-8 Plain Text
Duration : 53 min 12 s
Title : ಕನ್ನಡ forced narrative
Writing library : Lavc60.3.100 srt
Language : Kannada
Default : No
Forced : No

Text #26
ID : 54
Format : UTF-8
Codec ID : S_TEXT/UTF8
Codec ID/Info : UTF-8 Plain Text
Duration : 53 min 12 s
Title : മലയാളം forced narrative
Writing library : Lavc60.3.100 srt
Language : Malayalam
Default : No
Forced : No

Text #27
ID : 55
Format : UTF-8
Codec ID : S_TEXT/UTF8
Codec ID/Info : UTF-8 Plain Text
Duration : 51 min 52 s
Title : ไทย forced narrative
Writing library : Lavc60.3.100 srt
Language : Thai
Default : No
Forced : No

Text #28
ID : 56
Format : UTF-8
Codec ID : S_TEXT/UTF8
Codec ID/Info : UTF-8 Plain Text
Duration : 53 min 12 s
Title : 日本語 forced narrative
Writing library : Lavc60.3.100 srt
Language : Japanese
Default : No
Forced : No





Gen V S01E12023


Gen V S01E12023


Gen V S01E12023


Gen V S01E12023


Gen V S01E12023

All episodes