Index
# A B C D E F G H I J K L M N O P Q R S T U V W X Y Z
Tags
Language
Tags
February 2024
Su Mo Tu We Th Fr Sa
28 29 30 31 1 2 3
4 5 6 7 8 9 10
11 12 13 14 15 16 17
18 19 20 21 22 23 24
25 26 27 28 29 1 2
Attention❗ To save your time, in order to download anything on this site, you must be registered 👉 HERE. If you do not have a registration yet, it is better to do it right away. ✌

( • )( • ) ( ͡⚆ ͜ʖ ͡⚆ ) (‿ˠ‿)
SpicyMags.xyz

Featured TV Shows


Silo S01E02

Posted By: Tavaz
Silo S01E02

Silo S01E02
MKV | 1280x640 | English | H264 @ 589 kbps | AC-3 @ 448.0 kbps | 47 min 46 s | 362 MiB
Subtitles: English
Genre: Drama


In a ruined and toxic future, a community exists in a giant underground silo that plunges hundreds of stories deep. There, men and women live in a society full of regulations they believe are meant to protect them.

7b7feec5c1354886b8f90a30f8f15c71.mkv (361.6 MB)



General
Unique ID : 294691766250062672528769046024278498066 (0xDDB391D7C3647D2195E1558B854BDB12)
Complete name : ./7b7feec5c1354886b8f90a30f8f15c71.mkv
Format : Matroska
Format version : Version 4
File size : 362 MiB
Duration : 47 min 46 s
Overall bit rate : 1 058 kb/s
Movie name : Silo.S01E02
Writing application : Lavf59.16.100
Writing library : Lavf59.16.100
Comment : FENiX-Fri-05-May-2023,03:06:03,720p,24,fast,9874447,0,-1
ErrorDetectionType : Per level 1

Video
ID : 1
Format : AVC
Format/Info : Advanced Video Codec
Format profile : High@L3.1
Format settings : CABAC / 4 Ref Frames
Format settings, CABAC : Yes
Format settings, Reference frames : 4 frames
Codec ID : V_MPEG4/ISO/AVC
Duration : 47 min 46 s
Bit rate : 589 kb/s
Width : 1 280 pixels
Height : 640 pixels
Display aspect ratio : 2.000
Frame rate mode : Variable
Color space : YUV
Chroma subsampling : 4:2:0
Bit depth : 8 bits
Scan type : Progressive
Stream size : 201 MiB (56%)
Writing library : x264 core 163
Encoding settings : cabac=1 / ref=2 / deblock=1:0:0 / analyse=0x3:0x113 / me=hex / subme=6 / psy=1 / psy_rd=1.00:0.00 / mixed_ref=1 / me_range=16 / chroma_me=1 / trellis=1 / 8x8dct=1 / cqm=0 / deadzone=21,11 / fast_pskip=1 / chroma_qp_offset=-2 / threads=20 / lookahead_threads=3 / sliced_threads=0 / nr=0 / decimate=1 / interlaced=0 / bluray_compat=0 / constrained_intra=0 / bframes=3 / b_pyramid=2 / b_adapt=1 / b_bias=0 / direct=1 / weightb=1 / open_gop=0 / weightp=1 / keyint=250 / keyint_min=23 / scenecut=40 / intra_refresh=0 / rc_lookahead=30 / rc=crf / mbtree=1 / crf=24.0 / qcomp=0.60 / qpmin=0 / qpmax=69 / qpstep=4 / ip_ratio=1.40 / aq=1:1.00
Default : Yes
Forced : No
Color range : Limited
Color primaries : BT.709
Transfer characteristics : BT.709
Matrix coefficients : BT.709

Audio
ID : 2
Format : AC-3
Format/Info : Audio Coding 3
Commercial name : Dolby Digital
Codec ID : A_AC3
Duration : 47 min 46 s
Bit rate mode : Constant
Bit rate : 448 kb/s
Channel(s) : 6 channels
Channel layout : L R C LFE Ls Rs
Sampling rate : 48.0 kHz
Frame rate : 31.250 FPS (1536 SPF)
Bit depth : 32 bits
Compression mode : Lossy
Stream size : 153 MiB (42%)
Writing library : Lavc59.18.100 ac3
Language : English
Service kind : Complete Main
Default : Yes
Forced : No

Text
ID : 3
Format : UTF-8
Codec ID : S_TEXT/UTF8
Codec ID/Info : UTF-8 Plain Text
Duration : 46 min 24 s
Language : English
Default : No
Forced : No





Silo S01E02


Silo S01E02


Silo S01E02


Silo S01E02


Silo S01E02

All episodes