Tags
Language
Tags
April 2024
Su Mo Tu We Th Fr Sa
31 1 2 3 4 5 6
7 8 9 10 11 12 13
14 15 16 17 18 19 20
21 22 23 24 25 26 27
28 29 30 1 2 3 4

Uma Musume - Pretty Derby Season 3 - 10

Posted By: Otaku
Uma Musume - Pretty Derby Season 3 - 10

Uma Musume - Pretty Derby Season 3 - 10
MKV | 848x480 | 日本語 | H264 @ 2000 kbps | AAC @ 96.0 kbps | 23 min 55 s | 365 MiB
Subtitles: English, Deutsch, Italiano, Русский, Español, Français, Português



[Erai-raws] Uma Musume - Pretty Derby Season 3 - 10 [480p][Multiple Subtitle][061DB68D].mkv (364.6 MB)



General
Unique ID : 13592102691229282226630742599302652580 (0xA39BE66ECFEB19335A36ADB1FAC22A4)
Complete name : ./[Erai-raws] Uma Musume - Pretty Derby Season 3 - 10 [480p][Multiple Subtitle][061DB68D].mkv
Format : Matroska
Format version : Version 4
File size : 365 MiB
Duration : 23 min 55 s
Overall bit rate : 2 131 kb/s
Encoded date : UTC 2023-12-06 17:06:42
Writing application : mkvmerge v81.0 ('Milliontown') 64-bit
Writing library : libebml v1.4.4 + libmatroska v1.7.1
Attachments : arialbd.ttf / arialbi.ttf / Arial_0.ttf / ariblk_0.TTF / calibri.ttf / comicbd.ttf / comic_0.ttf / georgiab.ttf / georgiaz.ttf / georgia_0.ttf / impact_0.ttf / Tahoma_0.ttf / times_0.ttf / trebuc_0.ttf / verdana_0.ttf / AdobeArabic-Bold.otf / AdobeArabic-BoldItalic.otf / AdobeArabic-Italic.otf / AdobeArabic-Regular.otf

Video
ID : 1
Format : AVC
Format/Info : Advanced Video Codec
Format profile : Main@L3.1
Format settings : CABAC / 6 Ref Frames
Format settings, CABAC : Yes
Format settings, Reference frames : 6 frames
Codec ID : V_MPEG4/ISO/AVC
Duration : 23 min 55 s
Bit rate : 2 000 kb/s
Width : 848 pixels
Height : 480 pixels
Display aspect ratio : 16:9
Frame rate mode : Constant
Frame rate : 23.976 (24000/1001) FPS
Color space : YUV
Chroma subsampling : 4:2:0
Bit depth : 8 bits
Scan type : Progressive
Bits/(Pixel*Frame) : 0.205
Stream size : 340 MiB (93%)
Writing library : x264 core 164
Encoding settings : cabac=1 / ref=6 / deblock=1:1:1 / analyse=0x1:0x111 / me=hex / subme=8 / psy=1 / psy_rd=0.40:0.00 / mixed_ref=1 / me_range=16 / chroma_me=1 / trellis=2 / 8x8dct=0 / cqm=0 / deadzone=21,11 / fast_pskip=1 / chroma_qp_offset=-2 / threads=6 / lookahead_threads=1 / sliced_threads=0 / nr=0 / decimate=1 / interlaced=0 / bluray_compat=0 / constrained_intra=0 / bframes=0 / weightp=2 / keyint=96 / keyint_min=48 / scenecut=40 / intra_refresh=0 / rc_lookahead=48 / rc=2pass / mbtree=1 / bitrate=2000 / ratetol=1.0 / qcomp=0.60 / qpmin=0 / qpmax=69 / qpstep=4 / cplxblur=20.0 / qblur=0.5 / vbv_maxrate=3000 / vbv_bufsize=4500 / nal_hrd=none / filler=0 / ip_ratio=1.40 / aq=1:0.60
Language : Japanese
Default : Yes
Forced : No
Color range : Limited
Color primaries : BT.709
Transfer characteristics : BT.709
Matrix coefficients : BT.709

Audio
ID : 2
Format : AAC LC
Format/Info : Advanced Audio Codec Low Complexity
Codec ID : A_AAC-2
Duration : 23 min 55 s
Bit rate : 96.0 kb/s
Channel(s) : 2 channels
Channel layout : L R
Sampling rate : 44.1 kHz
Frame rate : 43.066 FPS (1024 SPF)
Compression mode : Lossy
Stream size : 16.4 MiB (5%)
Language : Japanese
Default : Yes
Forced : No

Text #1
ID : 3
Format : ASS
Codec ID : S_TEXT/ASS
Codec ID/Info : Advanced Sub Station Alpha
Duration : 22 min 11 s
Bit rate : 198 b/s
Frame rate : 0.284 FPS
Count of elements : 378
Compression mode : Lossless
Stream size : 32.2 KiB (0%)
Title : English
Language : English
Default : Yes
Forced : No

Text #2
ID : 4
Format : ASS
Codec ID : S_TEXT/ASS
Codec ID/Info : Advanced Sub Station Alpha
Duration : 22 min 11 s
Bit rate : 199 b/s
Frame rate : 0.285 FPS
Count of elements : 380
Compression mode : Lossless
Stream size : 32.3 KiB (0%)
Title : Portuguese(Brazil)
Language : Portuguese
Default : No
Forced : No

Text #3
ID : 5
Format : ASS
Codec ID : S_TEXT/ASS
Codec ID/Info : Advanced Sub Station Alpha
Duration : 23 min 48 s
Bit rate : 277 b/s
Frame rate : 0.308 FPS
Count of elements : 440
Compression mode : Lossless
Stream size : 48.4 KiB (0%)
Title : Spanish(Latin_America)
Language : Spanish
Default : No
Forced : No

Text #4
ID : 6
Format : ASS
Codec ID : S_TEXT/ASS
Codec ID/Info : Advanced Sub Station Alpha
Duration : 23 min 48 s
Bit rate : 281 b/s
Frame rate : 0.309 FPS
Count of elements : 442
Compression mode : Lossless
Stream size : 49.1 KiB (0%)
Title : Spanish
Language : Spanish
Default : No
Forced : No

Text #5
ID : 7
Format : ASS
Codec ID : S_TEXT/ASS
Codec ID/Info : Advanced Sub Station Alpha
Duration : 23 min 48 s
Bit rate : 154 b/s
Frame rate : 0.244 FPS
Count of elements : 348
Compression mode : Lossless
Stream size : 26.9 KiB (0%)
Title : French
Language : French
Default : No
Forced : No

Text #6
ID : 8
Format : ASS
Codec ID : S_TEXT/ASS
Codec ID/Info : Advanced Sub Station Alpha
Duration : 22 min 45 s
Bit rate : 198 b/s
Frame rate : 0.273 FPS
Count of elements : 372
Compression mode : Lossless
Stream size : 33.1 KiB (0%)
Title : German
Language : German
Default : No
Forced : No

Text #7
ID : 9
Format : ASS
Codec ID : S_TEXT/ASS
Codec ID/Info : Advanced Sub Station Alpha
Duration : 22 min 11 s
Bit rate : 206 b/s
Frame rate : 0.287 FPS
Count of elements : 382
Compression mode : Lossless
Stream size : 33.6 KiB (0%)
Title : Italian
Language : Italian
Default : No
Forced : No

Text #8
ID : 10
Format : ASS
Codec ID : S_TEXT/ASS
Codec ID/Info : Advanced Sub Station Alpha
Duration : 22 min 11 s
Bit rate : 220 b/s
Frame rate : 0.277 FPS
Count of elements : 369
Compression mode : Lossless
Stream size : 35.8 KiB (0%)
Title : Russian
Language : Russian
Default : No
Forced : No





Uma Musume - Pretty Derby Season 3 - 10


Uma Musume - Pretty Derby Season 3 - 10


Uma Musume - Pretty Derby Season 3 - 10


Uma Musume - Pretty Derby Season 3 - 10