Tags
Language
Tags
July 2024
Su Mo Tu We Th Fr Sa
30 1 2 3 4 5 6
7 8 9 10 11 12 13
14 15 16 17 18 19 20
21 22 23 24 25 26 27
28 29 30 31 1 2 3

Steins;Gate 0 - 02 BD 1920x1080 x 264-10Bit Flac

Posted By: Otaku
Steins;Gate 0 - 02 BD 1920x1080 x 264-10Bit Flac

Steins;Gate 0 - 02 BD 1920x1080 x 264-10Bit Flac
MKV | 1920x1080 | 日本語 | H264 @ 5071 kbps | FLAC @ 1396.599 kbps | 23 min 56 s | 1.08 GiB



[Moozzi2] Steins;Gate 0 - 02 (BD 1920x1080 x 264-10Bit Flac).mkv (1.1 GB)



General
Unique ID : 332964417130479289327347816481749070523 (0xFA7E9D38101FAE08AA0171A2C409F2BB)
Complete name : ./[Moozzi2] Steins;Gate 0 - 02 (BD 1920x1080 x 264-10Bit Flac).mkv
Format : Matroska
Format version : Version 4
File size : 1.08 GiB
Duration : 23 min 56 s
Overall bit rate mode : Variable
Overall bit rate : 6 470 kb/s
Encoded date : UTC 2019-01-20 22:54:22
Writing application : mkvmerge v28.2.0 ('The Awakening') 64-bit
Writing library : libebml v1.3.6 + libmatroska v1.4.9

Video
ID : 1
Format : AVC
Format/Info : Advanced Video Codec
Format profile : High 10@L5
Format settings : CABAC / 5 Ref Frames
Format settings, CABAC : Yes
Format settings, Reference frames : 5 frames
Codec ID : V_MPEG4/ISO/AVC
Duration : 23 min 56 s
Bit rate : 5 072 kb/s
Width : 1 920 pixels
Height : 1 080 pixels
Display aspect ratio : 16:9
Frame rate mode : Constant
Frame rate : 23.976 (24000/1001) FPS
Color space : YUV
Chroma subsampling : 4:2:0
Bit depth : 10 bits
Scan type : Progressive
Bits/(Pixel*Frame) : 0.102
Stream size : 868 MiB (78%)
Writing library : x264 core 155 r2901 7d0ff22
Encoding settings : cabac=1 / ref=5 / deblock=1:1:1 / analyse=0x3:0x113 / me=umh / subme=9 / psy=1 / psy_rd=1.00:0.00 / mixed_ref=1 / me_range=32 / chroma_me=1 / trellis=1 / 8x8dct=1 / cqm=0 / deadzone=21,11 / fast_pskip=0 / chroma_qp_offset=-2 / threads=24 / lookahead_threads=2 / sliced_threads=0 / nr=0 / decimate=1 / interlaced=0 / bluray_compat=0 / stitchable=1 / constrained_intra=0 / bframes=3 / b_pyramid=2 / b_adapt=2 / b_bias=0 / direct=1 / weightb=1 / open_gop=0 / weightp=1 / keyint=240 / keyint_min=23 / scenecut=40 / intra_refresh=0 / rc_lookahead=40 / rc=crf / mbtree=1 / crf=16.0 / qcomp=0.65 / qpmin=0 / qpmax=69 / qpstep=4 / ip_ratio=1.40 / aq=1:1.00
Language : Japanese
Default : Yes
Forced : No

Audio
ID : 2
Format : FLAC
Format/Info : Free Lossless Audio Codec
Codec ID : A_FLAC
Duration : 23 min 56 s
Bit rate mode : Variable
Bit rate : 1 397 kb/s
Channel(s) : 2 channels
Channel layout : L R
Sampling rate : 48.0 kHz
Frame rate : 11.719 FPS (4096 SPF)
Bit depth : 24 bits
Compression mode : Lossless
Stream size : 239 MiB (22%)
Writing library : libFLAC 1.3.2 (UTC 2017-01-01)
Language : Japanese
Default : Yes
Forced : No





Steins;Gate 0 - 02 BD 1920x1080 x 264-10Bit Flac


Steins;Gate 0 - 02 BD 1920x1080 x 264-10Bit Flac


Steins;Gate 0 - 02 BD 1920x1080 x 264-10Bit Flac


Steins;Gate 0 - 02 BD 1920x1080 x 264-10Bit Flac