Tags
Language
Tags
July 2024
Su Mo Tu We Th Fr Sa
30 1 2 3 4 5 6
7 8 9 10 11 12 13
14 15 16 17 18 19 20
21 22 23 24 25 26 27
28 29 30 31 1 2 3

Oshi no Ko 2nd Season - 02

Posted By: Otaku
Oshi no Ko 2nd Season - 02

Oshi no Ko 2nd Season - 02
MKV | 854x480 | 日本語 | H264 @ 872 kbps | AAC @ 128.726 kbps | 23 min 46 s | 172 MiB
Subtitles: English



[Erai-raws] Oshi no Ko 2nd Season - 02 [480p][A0D79FD4].mkv (171.7 MB)



General
Unique ID : 262862800996051651389991346060134324851 (0xC5C188B248669E4405570F89729E1A73)
Complete name : ./[Erai-raws] Oshi no Ko 2nd Season - 02 [480p][A0D79FD4].mkv
Format : Matroska
Format version : Version 4
File size : 172 MiB
Duration : 23 min 46 s
Overall bit rate : 1 010 kb/s
Encoded date : UTC 2024-07-10 15:01:30
Writing application : mkvmerge v85.0 ('Shame For You') 64-bit
Writing library : libebml v1.4.5 + libmatroska v1.7.1
Attachments : ARIALNB.TTF / BakerSignetBT.ttf / BakerSignetBTRoman.ttf / balonxb.ttf / calibril_0.ttf / ebrimabd_0.ttf / MeadBold.ttf / Swis721_BT_Bold.ttf / tahomabd_0.ttf / TEMPSITC.TTF

Video
ID : 1
Format : AVC
Format/Info : Advanced Video Codec
Format profile : Main@L4
Format settings : CABAC / 4 Ref Frames
Format settings, CABAC : Yes
Format settings, Reference frames : 4 frames
Codec ID : V_MPEG4/ISO/AVC
Duration : 23 min 46 s
Bit rate : 872 kb/s
Width : 854 pixels
Height : 480 pixels
Display aspect ratio : 16:9
Frame rate mode : Constant
Frame rate : 24.000 FPS
Color space : YUV
Chroma subsampling : 4:2:0
Bit depth : 8 bits
Scan type : Progressive
Bits/(Pixel*Frame) : 0.089
Stream size : 146 MiB (85%)
Writing library : x264 core 164 r3153 5f84d40
Encoding settings : cabac=1 / ref=2 / deblock=1:0:0 / analyse=0x1:0x111 / me=hex / subme=6 / psy=1 / psy_rd=1.00:0.00 / mixed_ref=1 / me_range=16 / chroma_me=1 / trellis=1 / 8x8dct=0 / cqm=0 / deadzone=21,11 / fast_pskip=1 / chroma_qp_offset=-2 / threads=15 / lookahead_threads=2 / sliced_threads=0 / nr=0 / decimate=1 / interlaced=0 / bluray_compat=0 / constrained_intra=0 / bframes=2 / b_pyramid=2 / b_adapt=1 / b_bias=0 / direct=1 / weightb=1 / open_gop=0 / weightp=1 / keyint=48 / keyint_min=25 / scenecut=0 / intra_refresh=0 / rc_lookahead=30 / rc=2pass / mbtree=1 / bitrate=872 / ratetol=1.0 / qcomp=0.60 / qpmin=0 / qpmax=69 / qpstep=4 / cplxblur=20.0 / qblur=0.5 / vbv_maxrate=872 / vbv_bufsize=1744 / nal_hrd=none / filler=0 / ip_ratio=1.40 / aq=1:1.00
Language : Japanese
Default : Yes
Forced : No

Audio
ID : 2
Format : AAC LC
Format/Info : Advanced Audio Codec Low Complexity
Codec ID : A_AAC-2
Duration : 23 min 46 s
Bit rate : 129 kb/s
Channel(s) : 2 channels
Channel layout : L R
Sampling rate : 48.0 kHz
Frame rate : 46.875 FPS (1024 SPF)
Compression mode : Lossy
Stream size : 21.9 MiB (13%)
Language : Japanese
Default : Yes
Forced : No

Text
ID : 3
Format : ASS
Codec ID : S_TEXT/ASS
Codec ID/Info : Advanced Sub Station Alpha
Duration : 20 min 41 s
Bit rate : 157 b/s
Frame rate : 0.296 FPS
Count of elements : 368
Compression mode : Lossless
Stream size : 23.8 KiB (0%)
Title : English
Language : English
Default : Yes
Forced : No





Oshi no Ko 2nd Season - 02


Oshi no Ko 2nd Season - 02


Oshi no Ko 2nd Season - 02


Oshi no Ko 2nd Season - 02