Tags
Language
Tags
July 2024
Su Mo Tu We Th Fr Sa
30 1 2 3 4 5 6
7 8 9 10 11 12 13
14 15 16 17 18 19 20
21 22 23 24 25 26 27
28 29 30 31 1 2 3

KimiSen 2 - 01

Posted By: Otaku
KimiSen 2 - 01

KimiSen 2 - 01
MKV | 1280x720 | 日本語 | H264 @ 4000 kbps | AAC @ 128.0 kbps | 24 min 15 s | 727 MiB
Subtitles: English, Italiano, Français, Deutsch, العربية, Español, Русский



[Erai-raws] KimiSen 2 - 01 [720p][Multiple Subtitle][CD12B799].mkv (726.6 MB)



General
Unique ID : 40487590786918387406058564728357375455 (0x1E75A0584B4F78B315F176DF9093CDDF)
Complete name : ./[Erai-raws] KimiSen 2 - 01 [720p][Multiple Subtitle][CD12B799].mkv
Format : Matroska
Format version : Version 4
File size : 727 MiB
Duration : 24 min 15 s
Overall bit rate : 4 188 kb/s
Encoded date : UTC 2024-07-10 14:33:43
Writing application : mkvmerge v85.0 ('Shame For You') 64-bit
Writing library : libebml v1.4.5 + libmatroska v1.7.1
Attachments : AdLibBT.ttf / AdLibRg.ttf / arialbd_1.ttf / arialbi_1.ttf / ariali_1.ttf / ARIALNB.TTF / arial_1.ttf / ariblk_1.ttf / balonxb.ttf / BelweBdBTBold.ttf / BRITANIC.TTF / CHILLER.TTF / comicbd_0.ttf / comici_0.ttf / comicz_0.ttf / comic_0.ttf / consolab_0.ttf / COOPBL.ttf / courbd_1.ttf / cour_1.ttf / DejaVuSans-Bold.ttf / DejaVuSansCondensed-Bold.ttf / domcasn.ttf / ebrimabd_0.ttf / Eraser.ttf / FirstGrader.ttf / Freeh471.ttf / FRHND471.TTF / Garamond Bold font.ttf / georgiab_0.ttf / georgiai_0.ttf / georgiaz_0.ttf / georgia_0.ttf / impact_0.ttf / Impress.ttf / JAPAB_.TTF / Rubik-Bold.ttf / Rubik-Light.ttf / Rubik-Regular.ttf / segoeprb_0.ttf / SQR721KN.TTF / SqueakyChalkSound.ttf / STAC222N.TTF / Stacc222.ttf / staccato 555 bt.ttf / Swis721_BT_Bold.ttf / tahomabd_0.ttf / tahoma_1.ttf / timesbd_1.ttf / timesbi_1.ttf / timesi_1.ttf / times_3.ttf / Tonic Regular.ttf / trebucbd_0.ttf / trebucbi_0.ttf / trebucit_0.ttf / trebuc_0.ttf / VAGRoundedBT.ttf / verdanab_0.ttf / verdanaz_0.ttf / verdana_0.ttf / AdobeArabic-Bold.otf / AdobeArabic-BoldItalic.otf / AdobeArabic-Italic.otf / AdobeArabic-Regular.otf

Video
ID : 1
Format : AVC
Format/Info : Advanced Video Codec
Format profile : High@L4
Format settings : CABAC / 6 Ref Frames
Format settings, CABAC : Yes
Format settings, Reference frames : 6 frames
Format settings, GOP : M=1, N=48
Codec ID : V_MPEG4/ISO/AVC
Duration : 24 min 15 s
Bit rate : 4 000 kb/s
Width : 1 280 pixels
Height : 720 pixels
Display aspect ratio : 16:9
Frame rate mode : Constant
Frame rate : 23.976 (24000/1001) FPS
Color space : YUV
Chroma subsampling : 4:2:0
Bit depth : 8 bits
Scan type : Progressive
Bits/(Pixel*Frame) : 0.181
Stream size : 692 MiB (95%)
Writing library : x264 core 164
Encoding settings : cabac=1 / ref=6 / deblock=1:1:1 / analyse=0x3:0x113 / me=hex / subme=8 / psy=1 / psy_rd=0.40:0.00 / mixed_ref=1 / me_range=16 / chroma_me=1 / trellis=2 / 8x8dct=1 / cqm=0 / deadzone=21,11 / fast_pskip=1 / chroma_qp_offset=-2 / threads=9 / lookahead_threads=1 / sliced_threads=0 / nr=0 / decimate=1 / interlaced=0 / bluray_compat=0 / constrained_intra=0 / bframes=0 / weightp=2 / keyint=96 / keyint_min=48 / scenecut=40 / intra_refresh=0 / rc_lookahead=48 / rc=2pass / mbtree=1 / bitrate=4000 / ratetol=1.0 / qcomp=0.60 / qpmin=0 / qpmax=69 / qpstep=4 / cplxblur=20.0 / qblur=0.5 / vbv_maxrate=6000 / vbv_bufsize=9000 / nal_hrd=none / filler=0 / ip_ratio=1.40 / aq=1:0.60
Language : Japanese
Default : Yes
Forced : No
Color range : Limited
Color primaries : BT.709
Transfer characteristics : BT.709
Matrix coefficients : BT.709

Audio
ID : 2
Format : AAC LC
Format/Info : Advanced Audio Codec Low Complexity
Codec ID : A_AAC-2
Duration : 24 min 15 s
Bit rate : 128 kb/s
Channel(s) : 2 channels
Channel layout : L R
Sampling rate : 44.1 kHz
Frame rate : 43.066 FPS (1024 SPF)
Compression mode : Lossy
Stream size : 22.2 MiB (3%)
Language : Japanese
Default : Yes
Forced : No

Text #1
ID : 3
Format : ASS
Codec ID : S_TEXT/ASS
Codec ID/Info : Advanced Sub Station Alpha
Duration : 22 min 42 s
Bit rate : 187 b/s
Frame rate : 0.324 FPS
Count of elements : 441
Compression mode : Lossless
Stream size : 31.2 KiB (0%)
Title : English
Language : English
Default : Yes
Forced : No

Text #2
ID : 4
Format : ASS
Codec ID : S_TEXT/ASS
Codec ID/Info : Advanced Sub Station Alpha
Duration : 24 min 13 s
Bit rate : 171 b/s
Frame rate : 0.292 FPS
Count of elements : 424
Compression mode : Lossless
Stream size : 30.5 KiB (0%)
Title : Spanish(Latin_America)
Language : Spanish
Default : No
Forced : No

Text #3
ID : 5
Format : ASS
Codec ID : S_TEXT/ASS
Codec ID/Info : Advanced Sub Station Alpha
Duration : 24 min 13 s
Bit rate : 172 b/s
Frame rate : 0.292 FPS
Count of elements : 424
Compression mode : Lossless
Stream size : 30.6 KiB (0%)
Title : Spanish
Language : Spanish
Default : No
Forced : No

Text #4
ID : 6
Format : ASS
Codec ID : S_TEXT/ASS
Codec ID/Info : Advanced Sub Station Alpha
Duration : 22 min 42 s
Bit rate : 231 b/s
Frame rate : 0.324 FPS
Count of elements : 441
Compression mode : Lossless
Stream size : 38.5 KiB (0%)
Title : Arabic
Language : Arabic
Default : No
Forced : No

Text #5
ID : 7
Format : ASS
Codec ID : S_TEXT/ASS
Codec ID/Info : Advanced Sub Station Alpha
Duration : 24 min 12 s
Bit rate : 177 b/s
Frame rate : 0.297 FPS
Count of elements : 432
Compression mode : Lossless
Stream size : 31.6 KiB (0%)
Title : French
Language : French
Default : No
Forced : No

Text #6
ID : 8
Format : ASS
Codec ID : S_TEXT/ASS
Codec ID/Info : Advanced Sub Station Alpha
Duration : 23 min 8 s
Bit rate : 207 b/s
Frame rate : 0.315 FPS
Count of elements : 438
Compression mode : Lossless
Stream size : 35.2 KiB (0%)
Title : German
Language : German
Default : No
Forced : No

Text #7
ID : 9
Format : ASS
Codec ID : S_TEXT/ASS
Codec ID/Info : Advanced Sub Station Alpha
Duration : 23 min 8 s
Bit rate : 233 b/s
Frame rate : 0.348 FPS
Count of elements : 483
Compression mode : Lossless
Stream size : 39.5 KiB (0%)
Title : Italian
Language : Italian
Default : No
Forced : No

Text #8
ID : 10
Format : ASS
Codec ID : S_TEXT/ASS
Codec ID/Info : Advanced Sub Station Alpha
Duration : 22 min 42 s
Bit rate : 255 b/s
Frame rate : 0.313 FPS
Count of elements : 427
Compression mode : Lossless
Stream size : 42.5 KiB (0%)
Title : Russian
Language : Russian
Default : No
Forced : No





KimiSen 2 - 01


KimiSen 2 - 01


KimiSen 2 - 01


KimiSen 2 - 01