Subcategories

The Queers - Munki Brain (2007) RESTORED

Posted By: Rehabilly
The Queers - Munki Brain (2007) RESTORED

The Queers - Munki Brain (2007)
WV+CUE+LOG or MP3 CBR 320 | 31:07 min | 237 or 71 MB
Produced by Mass Giorgini. Asian Man Records # ASM 141 CD

Long-running pop-punkers the Queers are either the smartest bunch of dumb punks or the dumbest bunch of a smart guys around. The truth remains undetermined as of 2007's Munki Brain, the band's 15th album over the course of three decades. Knuckleheads with hearts has always been the band's calling card, and tracks such as "I Think She's Starting to Like Me", "I Can't Stay Mad at You", and "Girl About Town" don't disappoint, offering witty takes on Rock & Roll and girls at a classic, blitzkrieg-bopping pace.

The Queers - Munki Brain (2007) RESTORED

Yes, "pop-punk" has gone light years beyond the point of parody and annoyance by the early 21st century. It seems like every time you switch on MTV, there's some new group of barely pubescent gentlemen with spiffy duds and freshly primped Mohawks performing singalong nursery songs. But a band like the Queers is a different beast entirely, as they helped create the style that is now commonplace – merging punk riffs with power pop hooks. And they're still at it on their umpteenth release, 2007's Munki Brain. Unlike the younger pop-punk bands, the Queers have obviously studied their power pop of yore, as the album-opening "Overdue" sounds like it could have fit on an early Cheap Trick album. But on the other hand, songs such as "Girl About Town" would sound simply dandy being blasted from a stage on the Warped Tour in the mid-afternoon. And you've got to love a band that isn't afraid to let its admiration of surf music and doo wop come shining through, as the band does on "I Can't Stay Mad at You". As the Queers prove throughout Munki Brain, not all pop-punk is annoying rubbish.

~ Greg Prato, all media guide


Tracklist:

01. Overdue
02. Houston We Have A Problem
03. I Don't Get It
04. Duke Kahanamoku
05. I Think She's Starting To Like Me
06. Girl About Town
07. Whatever Happened To Philthy Phil
08. I Can't Stay Mad At You
09. Tangerine
10. Something In My Heart
11. I'm A Fool
12. Monkey In A Suit
13. Brian Wilson

Exact Audio Copy V0.99 prebeta 4 from 23. January 2008

EAC extraction logfile from 10. March 2009, 8:18

The Queers / Munki Brain

Used drive : ASUS DRW-1814BL Adapter: 1 ID: 0

Read mode : Secure
Utilize accurate stream : Yes
Defeat audio cache : Yes
Make use of C2 pointers : No

Read offset correction : 6
Overread into Lead-In and Lead-Out : No
Fill up missing offset samples with silence : Yes
Delete leading and trailing silent blocks : No
Null samples used in CRC calculations : Yes
Used interface : Installed external ASPI interface

Used output format : Internal WAV Routines
Sample format : 44.100 Hz; 16 Bit; Stereo


TOC of the extracted CD

Track | Start | Length | Start sector | End sector
––––––––––––––––––––––––––––-
1 | 0:00.00 | 2:47.28 | 0 | 12552
2 | 2:47.28 | 2:09.05 | 12553 | 22232
3 | 4:56.33 | 2:15.28 | 22233 | 32385
4 | 7:11.61 | 3:16.74 | 32386 | 47159
5 | 10:28.60 | 1:45.24 | 47160 | 55058
6 | 12:14.09 | 2:24.58 | 55059 | 65916
7 | 14:38.67 | 1:45.23 | 65917 | 73814
8 | 16:24.15 | 2:15.23 | 73815 | 83962
9 | 18:39.38 | 2:13.44 | 83963 | 93981
10 | 20:53.07 | 2:58.58 | 93982 | 107389
11 | 23:51.65 | 2:23.69 | 107390 | 118183
12 | 26:15.59 | 2:18.62 | 118184 | 128595
13 | 28:34.46 | 2:32.16 | 128596 | 140011


Range status and errors

Selected range

Filename C:\200\The Queers - Munki Brain (2007)\The Queers - Munki Brain.wav

Peak level 98.9 %
Range quality 100.0 %
Copy CRC 94AD98C6
Copy OK

No errors occurred


AccurateRip summary

Track 1 accurately ripped (confidence 2) [6E17B8D4]
Track 2 accurately ripped (confidence 2) [E6391622]
Track 3 accurately ripped (confidence 2) [7D8D543A]
Track 4 accurately ripped (confidence 2) [5C5B2758]
Track 5 accurately ripped (confidence 2) [3D579182]
Track 6 accurately ripped (confidence 2) [8F4D1FFD]
Track 7 accurately ripped (confidence 2) [66D75EA0]
Track 8 accurately ripped (confidence 2) [176413B6]
Track 9 accurately ripped (confidence 2) [520F84DE]
Track 10 accurately ripped (confidence 2) [3A562A8E]
Track 11 accurately ripped (confidence 2) [3DDF5E30]
Track 12 accurately ripped (confidence 2) [2DEC993A]
Track 13 accurately ripped (confidence 2) [E08A8613]

All tracks accurately ripped

End of status report

Produced by Mass Giorgini at Sonic Iguana
Recorded and Mixed by Mass and Jorge.

• Joe King - lead vocals, guitar
• Phillip Hill - bass, vocals
• Lurch Nobody - drums

guest musicians:
- Lisa Marr - vocals
- Mickey Last - guitar, keyboards, vocals
- Bice (Even In Blackouts) - drums on "13"
- Blackie (Hard Ons) - lead guitar on "7"
- Rick (Southern Culture) - lead guitar on "4"

Release Date: February 6, 2007
Format: Original Recording
Label: Asian Man Records
Catalog No.: ASM 141 CD
The Right choice*
http://filepost.com/files/162m91e7/TQ207MUB32V.part1.rar
http://filepost.com/files/a55724aa/TQ207MUB32V.part2.rar

all covers.png (39 MB)
http://filepost.com/files/bc3mm918/TQ207MUB330C.rar

lossy.mp3
http://filepost.com/files/d14bm9c3/TQ207MUB20G.rar


* Original CD -> EAC Image, embedded cuesheet & more, foobar2000 ready, etc.
(all CUEs, LOGs and other technical info includes in the internal "CD_Support" archive).

_______________________________