Subcategories

Dead Kennedys - Fresh Fruit For Rotting Vegetables (1980) [Original + SHM-CD Remaster + Bonus disc] RESTORED

Posted By: Rehabilly
Dead Kennedys - Fresh Fruit For Rotting Vegetables (1980) [Original + SHM-CD Remaster + Bonus disc] RESTORED

Dead Kennedys are an American punk rock band, formed in San Francisco, California in 1978. Pioneers of hardcore during the 1980s, the band gained a large underground following in the international punk music scene.
Their music mixed the more experimental elements of British 1970s punk with the raw energy of the 1980s American hardcore punk scene. Dead Kennedys' songs mixed deliberately shocking lyrics with satirical and sarcastic criticism of social and political issues of the Reagan era.

Dead Kennedys - Fresh Fruit For Rotting Vegetables (1980) [Original + SHM-CD Remaster + Bonus disc] RESTORED

Fresh Fruit for Rotting Vegetables is the debut album by the hardcore punk band Dead Kennedys, released initially on Cherry Red Records in the UK in 1980 and eventually through Faulty Products in the US (later by the DK's own Alternative Tentacles label).
The best selling and generally the most critically acclaimed album by the Dead Kennedys, Fresh Fruit for Rotting Vegetables has become a major staple of American punk.

Dead Kennedys - Fresh Fruit For Rotting Vegetables (1980) [Original + SHM-CD Remaster + Bonus disc] RESTORED

Dead Kennedys - Fresh Fruit For Rotting Vegetables (1980)
FLAC+CUE+LOG+Covers or MP3 CBR 320 | Complete Scans | 220/124/252 or 122 MB
Original CD Pressing '1993 + Bonus disc from LE Reissue '2001 + Japanese SHM-CD '2008

Dead Kennedys' debut LP is the classic album of American Hardcore/Punk, and one of the albums that helped to define the whole genre. First released in 1980, and one of the first hardcore albums ever, Fresh Fruit for Rotting Vegetables has been called the "Dead Kennedys signature statement". According to Kerrang, it is the "#3 Punk Rock Album of All Time", and Mojo has it as "#9 on the Top 50 Punk Albums of All Time".

Dead Kennedys - Fresh Fruit For Rotting Vegetables (1980) [Original + SHM-CD Remaster + Bonus disc] RESTORED

To followers of the early-'80s West Coast punk scene, few acts have greater import than the Dead Kennedys, and FRESH FRUIT FOR ROTTING VEGETABLES is their definitive work. Fueled by the hyperactive, paranoid rants of frontman Jello Biafra,the band lays out a blueprint for societal upheaval, preaching distrust of everything, and the eventual breakdown of the totalitarian police state in which we live. His disturbingworld view is propelled by the guitar stylings of East Bay Ray, who replaced punk's stereotypical volume assault with carefully chosen and flawlessly executed bursts of musical sarcasm and frightening sonic inventiveness. The album's opener, "Kill the Poor," is a jubilant excoriation of society's treatment of poverty. Songs like "Let's Lynch The Landlord" and "Stealing Peoples' Mail" provide detailed (and hysterically funny) plans for undermining society's oppression, as does "Chemical Warfare," which even goes so far as to act out the violent rebellion. This was rage of unprecedented intellect, vitriol whose eloquence only served to make it more effective. The politics of the classics "Holiday In Cambodia" and "California Uber Alles" are extreme and violent, but also expertly stated and brilliantly executed.
Dead Kennedys - Fresh Fruit For Rotting Vegetables (1980) [Original + SHM-CD Remaster + Bonus disc] RESTORED

A hyper-speed blast of ultra-polemical, left-wing hardcore punk, and bitingly funny sarcasm, Fresh Fruit for Rotting Vegetables stands as the Dead Kennedys' signature statement. As one of the first hardcore albums, it was a galvanizing influence on the musical and attitudinal development of the genre, also helping to kickstart the fertile California scene. The record's tactics are not subtle in the least; Jello Biafra's odd warble and spat-out lyrics leave no doubt as to what he thinks, baiting his targets of conservatism, violence, overbearing authority, and capitalist greed with a viciously satirical sarcasm that keeps his unflinchingly political outlook from becoming too didactic. The thin production dilutes some of the music's power, but the ragged speed-blur still packs a wallop, and the hooks cribbed from surf and rockabilly give it a gonzo edge. The songwriting isn't consistent all the way through the album, but classics like "Kill the Poor," "Let's Lynch the Landlord," "Chemical Warfare," "California Über Alles," and "Holiday In Cambodia" helped define the hardcore genre and, thus, must be heard.

~ Steve Huey, all media guide

Album Tracklisting

01. Kill The Poor
02. Forward To Death
03. When Ya Get Drafted
04. Let's Lynch The Landlord
05. Drug Me
06. Your Emotions
07. Chemical Warfare
08. California Über Alles
09. I Kill Children
10. Stealing People's Mail
11. Funland At The Beach
12. Ill In The Head
13. Holiday In Cambodia
14. Viva Las Vegas

Exact Audio Copy V0.99 prebeta 5 from 4. May 2009

EAC extraction logfile from 13. September 2010, 13:07

Dead Kennedys / Fresh Fruit For Rotting Vegetables

Used drive : PIONEER DVD-RW DVR-116D Adapter: 1 ID: 0

Read mode : Secure
Utilize accurate stream : Yes
Defeat audio cache : Yes
Make use of C2 pointers : No

Read offset correction : 96
Overread into Lead-In and Lead-Out : No
Fill up missing offset samples with silence : Yes
Delete leading and trailing silent blocks : No
Null samples used in CRC calculations : Yes
Used interface : Installed external ASPI interface

Used output format : Internal WAV Routines
Sample format : 44.100 Hz; 16 Bit; Stereo


TOC of the extracted CD

Track | Start | Length | Start sector | End sector
––––––––––––––––––––––––––––-
1 | 0:00.00 | 3:03.62 | 0 | 13786
2 | 3:03.62 | 1:22.05 | 13787 | 19941
3 | 4:25.67 | 1:22.28 | 19942 | 26119
4 | 5:48.20 | 2:10.45 | 26120 | 35914
5 | 7:58.65 | 1:54.65 | 35915 | 44529
6 | 9:53.55 | 1:19.07 | 44530 | 50461
7 | 11:12.62 | 2:54.35 | 50462 | 63546
8 | 14:07.22 | 3:00.35 | 63547 | 77081
9 | 17:07.57 | 2:02.38 | 77082 | 86269
10 | 19:10.20 | 1:33.02 | 86270 | 93246
11 | 20:43.22 | 1:47.73 | 93247 | 101344
12 | 22:31.20 | 2:43.50 | 101345 | 113619
13 | 25:14.70 | 4:32.42 | 113620 | 134061
14 | 29:47.37 | 2:36.73 | 134062 | 145834


Range status and errors

Selected range

Filename C:\AvaxHome.ru\DEAD KENNEDYS\1980- Fresh Fruit For Rotting Vegetables (Orig)\DK - Fresh Fruit For Rotting Vegetables (Virus 1CD).wav

Peak level 100.0 %
Range quality 99.9 %
Test CRC 53E083D0
Copy CRC 53E083D0
Copy OK

No errors occurred


AccurateRip summary

Track 1 accurately ripped (confidence 25) [BD972A19]
Track 2 accurately ripped (confidence 25) [B8D46671]
Track 3 accurately ripped (confidence 25) [E05E0C43]
Track 4 accurately ripped (confidence 25) [E768AD4E]
Track 5 accurately ripped (confidence 25) [8AF10BE1]
Track 6 accurately ripped (confidence 25) [39C6C640]
Track 7 accurately ripped (confidence 25) [90AF9225]
Track 8 accurately ripped (confidence 25) [0E6DA9D0]
Track 9 accurately ripped (confidence 25) [4A3C707C]
Track 10 accurately ripped (confidence 25) [B04B2BB8]
Track 11 accurately ripped (confidence 25) [99FB5753]
Track 12 accurately ripped (confidence 24) [4AD3AA33]
Track 13 accurately ripped (confidence 25) [2D3EBEA6]
Track 14 accurately ripped (confidence 24) [2B6506C8]

All tracks accurately ripped

End of status report



Repackaged, but Thanks to The Original Ripper!

Exact Audio Copy V0.99 prebeta 4 from 23. January 2008

EAC extraction logfile from 28. September 2008, 17:57

Dead Kennedys / Fresh Fruit For Rotting Vegetables (SHM-CD Japan TECI-26493)

Used drive : PLEXTOR DVDR PX-760A Adapter: 0 ID: 0

Read mode : Secure
Utilize accurate stream : Yes
Defeat audio cache : Yes
Make use of C2 pointers : No

Read offset correction : 30
Overread into Lead-In and Lead-Out : Yes
Fill up missing offset samples with silence : Yes
Delete leading and trailing silent blocks : No
Null samples used in CRC calculations : Yes
Used interface : Native Win32 interface for Win NT & 2000
Gap handling : Appended to previous track

Used output format : Internal WAV Routines
Sample format : 44.100 Hz; 16 Bit; Stereo


TOC of the extracted CD

Track | Start | Length | Start sector | End sector
––––––––––––––––––––––––––––-
1 | 0:00.00 | 3:07.27 | 0 | 14051
2 | 3:07.27 | 1:23.43 | 14052 | 20319
3 | 4:30.70 | 1:23.62 | 20320 | 26606
4 | 5:54.57 | 2:13.03 | 26607 | 36584
5 | 8:07.60 | 1:56.70 | 36585 | 45354
6 | 10:04.55 | 1:20.30 | 45355 | 51384
7 | 11:25.10 | 2:58.42 | 51385 | 64776
8 | 14:23.52 | 3:03.55 | 64777 | 78556
9 | 17:27.32 | 2:04.55 | 78557 | 87911
10 | 19:32.12 | 1:34.60 | 87912 | 95021
11 | 21:06.72 | 1:49.73 | 95022 | 103269
12 | 22:56.70 | 2:46.45 | 103270 | 115764
13 | 25:43.40 | 4:37.40 | 115765 | 136579
14 | 30:21.05 | 2:41.25 | 136580 | 148679


Track 1

Filename C:\Lossless\Dead Kennedys - Fresh Fruit For Rotting Vegetables (1980) [FLAC] (SHM-CD Japan TECI-26493)\01 - Kill The Poor.wav

Pre-gap length 0:00:02.00

Peak level 97.3 %
Track quality 100.0 %
Test CRC 9DE0F95A
Copy CRC 9DE0F95A
Track not present in AccurateRip database
Copy OK

Track 2

Filename C:\Lossless\Dead Kennedys - Fresh Fruit For Rotting Vegetables (1980) [FLAC] (SHM-CD Japan TECI-26493)\02 - Forward To Death.wav

Peak level 99.8 %
Track quality 100.0 %
Test CRC 62AF1B1E
Copy CRC 62AF1B1E
Track not present in AccurateRip database
Copy OK

Track 3

Filename C:\Lossless\Dead Kennedys - Fresh Fruit For Rotting Vegetables (1980) [FLAC] (SHM-CD Japan TECI-26493)\03 - When Ya Get Drafted.wav

Peak level 97.4 %
Track quality 100.0 %
Test CRC D20FADF7
Copy CRC D20FADF7
Track not present in AccurateRip database
Copy OK

Track 4

Filename C:\Lossless\Dead Kennedys - Fresh Fruit For Rotting Vegetables (1980) [FLAC] (SHM-CD Japan TECI-26493)\04 - Let's Lynch The Landlord.wav

Peak level 99.8 %
Track quality 100.0 %
Test CRC 03E8B4E5
Copy CRC 03E8B4E5
Track not present in AccurateRip database
Copy OK

Track 5

Filename C:\Lossless\Dead Kennedys - Fresh Fruit For Rotting Vegetables (1980) [FLAC] (SHM-CD Japan TECI-26493)\05 - Drug Me.wav

Peak level 99.8 %
Track quality 100.0 %
Test CRC 609674BA
Copy CRC 609674BA
Track not present in AccurateRip database
Copy OK

Track 6

Filename C:\Lossless\Dead Kennedys - Fresh Fruit For Rotting Vegetables (1980) [FLAC] (SHM-CD Japan TECI-26493)\06 - Your Emotions.wav

Peak level 99.8 %
Track quality 100.0 %
Test CRC BA94F7EF
Copy CRC BA94F7EF
Track not present in AccurateRip database
Copy OK

Track 7

Filename C:\Lossless\Dead Kennedys - Fresh Fruit For Rotting Vegetables (1980) [FLAC] (SHM-CD Japan TECI-26493)\07 - Chemical Warfare.wav

Peak level 99.8 %
Track quality 100.0 %
Test CRC 5D61E03C
Copy CRC 5D61E03C
Track not present in AccurateRip database
Copy OK

Track 8

Filename C:\Lossless\Dead Kennedys - Fresh Fruit For Rotting Vegetables (1980) [FLAC] (SHM-CD Japan TECI-26493)\08 - California Uber Alles.wav

Peak level 99.8 %
Track quality 100.0 %
Test CRC F53468F5
Copy CRC F53468F5
Track not present in AccurateRip database
Copy OK

Track 9

Filename C:\Lossless\Dead Kennedys - Fresh Fruit For Rotting Vegetables (1980) [FLAC] (SHM-CD Japan TECI-26493)\09 - I Kill Children.wav

Peak level 99.8 %
Track quality 100.0 %
Test CRC 696CA904
Copy CRC 696CA904
Track not present in AccurateRip database
Copy OK

Track 10

Filename C:\Lossless\Dead Kennedys - Fresh Fruit For Rotting Vegetables (1980) [FLAC] (SHM-CD Japan TECI-26493)\10 - Stealing Peoples' Mail.wav

Peak level 97.0 %
Track quality 100.0 %
Test CRC A86A10FB
Copy CRC A86A10FB
Track not present in AccurateRip database
Copy OK

Track 11

Filename C:\Lossless\Dead Kennedys - Fresh Fruit For Rotting Vegetables (1980) [FLAC] (SHM-CD Japan TECI-26493)\11 - Funland At The Beach.wav

Peak level 99.8 %
Track quality 100.0 %
Test CRC 0F428C07
Copy CRC 0F428C07
Track not present in AccurateRip database
Copy OK

Track 12

Filename C:\Lossless\Dead Kennedys - Fresh Fruit For Rotting Vegetables (1980) [FLAC] (SHM-CD Japan TECI-26493)\12 - Ill In The Head.wav

Peak level 99.8 %
Track quality 100.0 %
Test CRC 3403F4C1
Copy CRC 3403F4C1
Track not present in AccurateRip database
Copy OK

Track 13

Filename C:\Lossless\Dead Kennedys - Fresh Fruit For Rotting Vegetables (1980) [FLAC] (SHM-CD Japan TECI-26493)\13 - Holiday In Cambodia.wav

Peak level 99.8 %
Track quality 100.0 %
Test CRC 11B2EAB0
Copy CRC 11B2EAB0
Track not present in AccurateRip database
Copy OK

Track 14

Filename C:\Lossless\Dead Kennedys - Fresh Fruit For Rotting Vegetables (1980) [FLAC] (SHM-CD Japan TECI-26493)\14 - Viva Las Vegas.wav

Peak level 99.8 %
Track quality 100.0 %
Test CRC 8BCF36ED
Copy CRC 8BCF36ED
Track not present in AccurateRip database
Copy OK


None of the tracks are present in the AccurateRip database

No errors occurred

End of status report



Bonus CD from 2001 Remastered Reissue

01. Holiday In Cambodia
02. Police Truck
03. Kill The Poor
04. In-Sight
05. Too Drunk To Fuck
06. The Prey

Huge Thanks to The Original Ripper!

Exact Audio Copy V0.99 prebeta 3 from 28. July 2007

EAC extraction logfile from 13. October 2007, 8:43

Dead Kennedys / Fresh Fruit For Rotting Vegetables

Used drive : HL-DT-STDVD-RW_GSA-H41N Adapter: 2 ID: 0

Read mode : Secure
Utilize accurate stream : Yes
Defeat audio cache : Yes
Make use of C2 pointers : No

Combined read/write offset correction : 667
Overread into Lead-In and Lead-Out : No
Fill up missing offset samples with silence : Yes
Delete leading and trailing silent blocks : No
Null samples used in CRC calculations : Yes
Used interface : Installed external ASPI interface

Used output format : User Defined Encoder
Selected bitrate : 1024 kBit/s
Quality : High
Add ID3 tag : No
Command line compressor : C:\Program Files\Exact Audio Copy\FLAC\FLAC.EXE
Additional command line options : -6 -V -T "ARTIST=%a" -T "TITLE=%t" -T "ALBUM=%g" -T "DATE=%y" -T "TRACKNUMBER=%n" -T "GENRE=%m" -T "COMMENT=%e" %s -o %d


TOC of the extracted CD

Track | Start | Length | Start sector | End sector
––––––––––––––––––––––––––––-
1 | 0:00.00 | 3:46.48 | 0 | 16997
2 | 3:46.48 | 2:24.69 | 16998 | 27866
3 | 6:11.42 | 3:07.02 | 27867 | 41893
4 | 9:18.44 | 1:40.63 | 41894 | 49456
5 | 10:59.32 | 2:41.48 | 49457 | 61579
6 | 13:41.05 | 3:50.30 | 61580 | 78859


Range status and errors

Selected range

Filename D:\MUSIC\Kennedys\Bonus CD\Dead Kennedys - Fresh Fruit For Rotting Vegetables.wav

Peak level 99.8 %
Range quality 100.0 %
Test CRC 0D603544
Copy CRC 0D603544
Copy OK

No errors occurred

End of status report


Original Album Produced by Norm. Engineered by Oliver Dicicco.
All additional information about the staff & additional musicians read here.

• Jello Biafra - vocals
• East Bay Ray - guitar
• Klaus Flouride - bass
• Ted - drums

Original Release Date: September 1980
These versions Re-Released: Jan 1993/Sept 2001/Aug 2008
Format: Original Recording Reissued / 2x Remastered
Label: Alternative Tentacles/Cherry Red/Imperial Records (Japan)
Catalog No.: VIRUS 1CD / CDSBRED 155 / TECI-26493
–––––––––––––––
PASSWORD: www.AvaxHome.ws

DOWNLOAD HERE

* Original CD -> EAC Image, embedded cuesheet & more, foobar2000 ready, etc.
(all CUEs, LOGs and other technical info includes in the internal "CD_Support" archive)


Mirrors: Nitroflare/Uploadable
________________________