Subcategories

Prokofiev - Romeo & Juliet Suites - Respighi - Pini di Roma - Philadelphia Orchestra - Muti

Posted By: mrjansons
Prokofiev - Romeo & Juliet Suites - Respighi - Pini di Roma - Philadelphia Orchestra - Muti

Prokofiev - Romeo & Juliet Suites - Respighi - Pini di Roma - Philadelphia Orchestra - Muti
EAC 099pb4 Rip | APE+CUE, LOGs | 1 CD | 75 min | 327 MB | 300 dpi PDF Complete Scans
Genre: 20th Century | Label: EMI - Red line series

These performances are stunning, among the finest from Riccardo Muti's Philadelphia career. Seldom has "The Death of Tybalt" from Prokofiev's Romeo & Juliet Suite No. 1 had such raw excitement and virtuosity, and the great balcony scene is gorgeous. "Montagues and Capulets" also has a crushing power that we never seem to hear in performances of the complete ballet. Suite No. 1 is offered complete, while No. 2 is missing a couple of numbers, including the charming item simply called "Dance" (the Dance of the Girls with Lilies isn't such a loss). Respighi's Pines of Rome makes an odd coupling, but it's similarly magnificently played. Oddly enough, the early digital Prokofiev, despite a touch of glare on top, has more body and presence than the Respighi, which turns cloudy at the climaxes, with cymbals notably off-mike. Still, these sonic reservations don't detract from the quality or audibility of the music-making. -

Exact Audio Copy V0.99 prebeta 4 from 23. January 2008

EAC extraction logfile from 26. July 2009, 3:26

Muti, Riccardo/Philadelphia Orchestra / Prokofiev: Romeo and Juliet (Suites)

Used drive : HL-DT-STDVD-ROM GDR8163B Adapter: 1 ID: 1

Read mode : Secure
Utilize accurate stream : Yes
Defeat audio cache : Yes
Make use of C2 pointers : No

Read offset correction : 102
Overread into Lead-In and Lead-Out : No
Fill up missing offset samples with silence : Yes
Delete leading and trailing silent blocks : No
Null samples used in CRC calculations : No
Used interface : Native Win32 interface for Win NT & 2000

Used output format : Internal WAV Routines
Sample format : 44.100 Hz; 16 Bit; Stereo


TOC of the extracted CD

Track | Start | Length | Start sector | End sector
––––––––––––––––––––––––––––-
1 | 0:00.32 | 4:30.33 | 32 | 20314
2 | 4:30.65 | 1:43.67 | 20315 | 28106
3 | 6:14.57 | 3:27.53 | 28107 | 43684
4 | 9:42.35 | 2:50.42 | 43685 | 56476
5 | 12:33.02 | 2:13.65 | 56477 | 66516
6 | 14:46.67 | 7:29.63 | 66517 | 100254
7 | 22:16.55 | 4:13.25 | 100255 | 119254
8 | 26:30.05 | 5:17.10 | 119255 | 143039
9 | 31:47.15 | 3:55.15 | 143040 | 160679
10 | 35:42.30 | 2:50.40 | 160680 | 173469
11 | 38:32.70 | 8:18.35 | 173470 | 210854
12 | 46:51.30 | 6:13.55 | 210855 | 238884
13 | 53:05.10 | 2:31.67 | 238885 | 250276
14 | 55:37.02 | 6:46.65 | 250277 | 280791
15 | 62:23.67 | 7:31.70 | 280792 | 314686
16 | 69:55.62 | 5:10.60 | 314687 | 337996


Range status and errors

Selected range

Filename C:\Prokofiev - Muti\Muti, Riccardo Philadelphia Orchestra - Prokofiev Romeo and Juliet (Suites).wav

Peak level 100.0 %
Range quality 100.0 %
Copy CRC 16DA7303
Copy OK

No errors occurred


AccurateRip summary

Track 1 accurately ripped (confidence 6) [5C0AC0B9]
Track 2 accurately ripped (confidence 6) [194EAAF7]
Track 3 accurately ripped (confidence 6) [D1FE3B83]
Track 4 accurately ripped (confidence 6) [B17F0A2B]
Track 5 accurately ripped (confidence 6) [62E38D6C]
Track 6 accurately ripped (confidence 6) [E7EC8866]
Track 7 accurately ripped (confidence 6) [789087D9]
Track 8 accurately ripped (confidence 6) [4A1A311E]
Track 9 accurately ripped (confidence 6) [66E4D852]
Track 10 accurately ripped (confidence 6) [813F185B]
Track 11 accurately ripped (confidence 6) [86E49C0E]
Track 12 accurately ripped (confidence 6) [9CE7DDD8]
Track 13 accurately ripped (confidence 5) [E71C2A11]
Track 14 accurately ripped (confidence 5) [5AE1D151]
Track 15 accurately ripped (confidence 5) [D347C904]
Track 16 accurately ripped (confidence 5) [4831EE1A]

All tracks accurately ripped

End of status report

Sergei Prokofiev

Romeo and Juliet - Suites 1 & 2 (excerpts)

Ottorino Respighi

Pini di Roma

Philadelphia Orchestra

Riccardo Muti


CD - EMI - Red Line 7243 5 69959 2 5 - 1997

Recorded at the Memorial Hall, Philadelphia, PA (09/10/1984 - 09/12/1984)

LINK 1
LINK 2
LINK 3
LINK 4

PASSWORD: Cydonia oblonga