Subcategories

Gregorian - Masters Of Chant Chapter V (Limited Dark Edition) (2006)

Posted By: uff
Gregorian - Masters Of Chant Chapter V (Limited Dark Edition) (2006)

Gregorian - Masters Of Chant Chapter V (Limited Dark Edition) (2006)
New Age | 1cd | EAC Rip | Flac + Cue + Log | covers
edel 0170802ERE | rel 2006 | 465Mb

The fifth installment in this popular series that features a Gregorian choir singing modern Pop tunes arranged in the style of the chants sung by medieval monks. Previous installments in the Gregorian: Masters Of Chant series became international bestsellers, selling one million units each and reaching gold status in a dozen countries including Germany, France, Australia, South Africa and Singapore. The Gregorian Masters of Chant are the only worldwide touring Gregorian Choir, having played venues ranging from theaters to arenas to landmark churches. ~Cduniverse

Track listing
01. Heroes + Est Vero Fortunatus Interlude (5:35)
02. Comfortably Numb + Chorus Imminente Luna Interlude (7:55)
03. Send Me An Angel + Agnus Dei Interlude (4:55)
04. Silent Lucidity + Hodierno Die Interlude (6:19)
05. Lady In Black + Deus Caritas Est Interlude (5:56)
06. The Forest + Virtutum Laude Crevit Interlude (5:08)
07. A Weakened Soul + Semper Discessit Superior Interlude (5:09)
08. Boulevard Of Broken Dreams + Ad Acta Interlude (5:13)
09. The Unforgiven (6:49)
~ (52:57)


Exact Audio Copy V1.0 beta 2 from 29. April 2011

EAC extraction logfile from 27. July 2011, 21:42

Gregorian / Masters Of Chant Chapter V: Limited Dark Edition

Used drive : HL-DT-STDVDRAM GH22NS50 Adapter: 0 ID: 4

Read mode : Secure
Utilize accurate stream : Yes
Defeat audio cache : Yes
Make use of C2 pointers : No

Read offset correction : 667
Overread into Lead-In and Lead-Out : No
Fill up missing offset samples with silence : Yes
Delete leading and trailing silent blocks : No
Null samples used in CRC calculations : Yes
Used interface : Native Win32 interface for Win NT & 2000
Gap handling : Appended to previous track

Used output format : User Defined Encoder
Selected bitrate : 1024 kBit/s
Quality : High
Add ID3 tag : No
Command line compressor : C:\Program Files\Exact Audio Copy10b2\Flac\flac.exe
Additional command line options : -8 -V -T "ARTIST=%artist%" -T "TITLE=%title%" -T "ALBUM=%albumtitle%" -T "DATE=%year%" -T "TRACKNUMBER=%tracknr%" -T "GENRE=%genre%" -T "COMPOSER=%composer%" -T "COMMENT=ripped by DrStandBy" %source%


TOC of the extracted CD

Track | Start | Length | Start sector | End sector
––––––––––––––––––––––––––––-
1 | 0:00.00 | 5:34.59 | 0 | 25108
2 | 5:34.59 | 7:54.58 | 25109 | 60716
3 | 13:29.42 | 4:54.61 | 60717 | 82827
4 | 18:24.28 | 6:18.51 | 82828 | 111228
5 | 24:43.04 | 5:55.39 | 111229 | 137892
6 | 30:38.43 | 5:07.50 | 137893 | 160967
7 | 35:46.18 | 5:08.42 | 160968 | 184109
8 | 40:54.60 | 5:12.62 | 184110 | 207571
9 | 46:07.47 | 6:49.25 | 207572 | 238271


Track 1

Filename E:\Gregorian\Albums\2006 - Masters Of Chant Chapter V (Limited Dark Edition) (0170802 ERE)\01. Gregorian - Heroes + Est Vero Fortunatus Interlude.wav

Pre-gap length 0:00:02.00

Peak level 98.0 %
Extraction speed 1.1 X
Track quality 100.0 %
Test CRC 1BE89422
Copy CRC 1BE89422
Accurately ripped (confidence 12) [4165CA45] (AR v1)
Copy OK

Track 2

Filename E:\Gregorian\Albums\2006 - Masters Of Chant Chapter V (Limited Dark Edition) (0170802 ERE)\02. Gregorian - Comfortably Numb + Chorus Imminente Luna Interlude.wav

Peak level 99.9 %
Extraction speed 1.2 X
Track quality 99.9 %
Test CRC CD76CDCF
Copy CRC CD76CDCF
Accurately ripped (confidence 12) [BCA50F3D] (AR v1)
Copy OK

Track 3

Filename E:\Gregorian\Albums\2006 - Masters Of Chant Chapter V (Limited Dark Edition) (0170802 ERE)\03. Gregorian - Send Me An Angel + Agnus Dei Interlude.wav

Peak level 97.7 %
Extraction speed 1.3 X
Track quality 99.9 %
Test CRC 6ABE633C
Copy CRC 6ABE633C
Accurately ripped (confidence 12) [356257FE] (AR v1)
Copy OK

Track 4

Filename E:\Gregorian\Albums\2006 - Masters Of Chant Chapter V (Limited Dark Edition) (0170802 ERE)\04. Gregorian - Silent Lucidity + Hodierno Die Interlude.wav

Peak level 99.3 %
Extraction speed 1.6 X
Track quality 100.0 %
Test CRC 79E58DC7
Copy CRC 79E58DC7
Accurately ripped (confidence 12) [8E2025E0] (AR v1)
Copy OK

Track 5

Filename E:\Gregorian\Albums\2006 - Masters Of Chant Chapter V (Limited Dark Edition) (0170802 ERE)\05. Gregorian - Lady In Black + Deus Caritas Est Interlude.wav

Peak level 97.0 %
Extraction speed 1.7 X
Track quality 100.0 %
Test CRC 691F3D29
Copy CRC 691F3D29
Accurately ripped (confidence 12) [F7B999A1] (AR v1)
Copy OK

Track 6

Filename E:\Gregorian\Albums\2006 - Masters Of Chant Chapter V (Limited Dark Edition) (0170802 ERE)\06. Gregorian - The Forest + Virtutum Laude Crevit Interlude.wav

Peak level 99.9 %
Extraction speed 1.8 X
Track quality 100.0 %
Test CRC 95CD2808
Copy CRC 95CD2808
Accurately ripped (confidence 12) [BEA16205] (AR v1)
Copy OK

Track 7

Filename E:\Gregorian\Albums\2006 - Masters Of Chant Chapter V (Limited Dark Edition) (0170802 ERE)\07. Gregorian - A Weakened Soul + Semper Discessit Superior Interlude.wav

Peak level 100.0 %
Extraction speed 1.9 X
Track quality 100.0 %
Test CRC FE4B1606
Copy CRC FE4B1606
Accurately ripped (confidence 12) [C091AAF4] (AR v1)
Copy OK

Track 8

Filename E:\Gregorian\Albums\2006 - Masters Of Chant Chapter V (Limited Dark Edition) (0170802 ERE)\08. Gregorian - Boulevard Of Broken Dreams + Ad Acta Interlude.wav

Peak level 99.6 %
Extraction speed 2.0 X
Track quality 100.0 %
Test CRC 562D4175
Copy CRC 562D4175
Accurately ripped (confidence 12) [8E9454B6] (AR v1)
Copy OK

Track 9

Filename E:\Gregorian\Albums\2006 - Masters Of Chant Chapter V (Limited Dark Edition) (0170802 ERE)\09. Gregorian - The Unforgiven.wav

Peak level 99.9 %
Extraction speed 2.2 X
Track quality 100.0 %
Test CRC CE4B1BF5
Copy CRC CE4B1BF5
Accurately ripped (confidence 12) [6254997B] (AR v1)
Copy OK


All tracks accurately ripped

No errors occurred

End of status report

–– CUETools DB Plugin V2.1.2

[CTDB TOCID: LRHvwJ9hBD1fBdkB1FsEVchb_rM-] disk not present in database, Submit result: LRHvwJ9hBD1fBdkB1FsEVchb_rM- has been uploaded


==== Log checksum 710DE48696C8C4673F382601A3C842C71A7A87AAB0131625B5CA520F7726FD35 ====



[CUETools log; Date: 2014.05.26. 15:32:53; Version: 2.1.4]
[CTDB TOCID: LRHvwJ9hBD1fBdkB1FsEVchb_rM-] found.
Track | CTDB Status
1 | (4/4) Accurately ripped
2 | (4/4) Accurately ripped
3 | (4/4) Accurately ripped
4 | (4/4) Accurately ripped
5 | (4/4) Accurately ripped
6 | (4/4) Accurately ripped
7 | (4/4) Accurately ripped
8 | (4/4) Accurately ripped
9 | (4/4) Accurately ripped
[AccurateRip ID: 0012717a-00863e0d-770c6809] found.
Track [ CRC | V2 ] Status
01 [4165ca45|4245302d] (12+05/17) Accurately ripped
02 [bca50f3d|15494dbf] (12+05/17) Accurately ripped
03 [356257fe|7a661562] (12+05/17) Accurately ripped
04 [8e2025e0|6f3297b8] (12+04/16) Accurately ripped
05 [f7b999a1|6e9b3d48] (12+05/17) Accurately ripped
06 [bea16205|ded6f2c4] (12+05/17) Accurately ripped
07 [c091aaf4|7303172c] (12+05/17) Accurately ripped
08 [8e9454b6|d777890b] (12+05/17) Accurately ripped
09 [6254997b|59efb0b8] (12+04/16) Accurately ripped

Track Peak [ CRC32 ] [W/O NULL] [ LOG ]
– 100,0 [31D9031F] [D46F0C73]
01 98,0 [1BE89422] [57E8E7BA] CRC32
02 99,9 [CD76CDCF] [4025839A] CRC32
03 97,7 [6ABE633C] [F864649F] CRC32
04 99,3 [79E58DC7] [E16D79F2] CRC32
05 97,0 [691F3D29] [ED73035E] CRC32
06 99,9 [95CD2808] [0F2958C1] CRC32
07 100,0 [FE4B1606] [E2D5CD30] CRC32
08 99,6 [562D4175] [EBB612AD] CRC32
09 99,9 [CE4B1BF5] [1E9A62AC] CRC32


Thx to DrStandBy