The Beach Boys - Pet Sounds (1966, HDCD 2006) [40th Anniversary Edition CD + DVDRip] RESTORED

Posted By: Rehabilly
The Beach Boys - Pet Sounds (1966, HDCD 2006) [40th Anniversary Edition CD + DVDRip] RESTORED

The Beach Boys - Pet Sounds
WV+CUE+LOG or MP3 CBR 320 | 77:30 min | Covers | 445 or 178 MB
DVD-Rip | AVI, XviD 640x432 | Dolby AC3 224 Kbps | 56 min | 724 MB

Admired for both their infectious surfer music and their sophisticated, multi-tracked pop productions, the Beach Boys created a lasting impression on popular music through their complex harmonies and Brian Wilson's genius for composition and arrangement. Their 1966 album, PET SOUNDS, is a baroque/psychedelic-pop masterpiece that easily ranks among the most influential albums of the rock era.

The Beach Boys - Pet Sounds (1966, HDCD 2006) [40th Anniversary Edition CD + DVDRip] RESTORED

All of the original Beach Boys sang on Pet Sounds, but from the very beginning this was Brian Wilson's autocratic attempt to recreate the noises in his head. Laying the groundwork for the Beatles' Sgt. Pepper's Lonely Hearts Club Band a year later, Wilson plundered orchestra pits for new instruments and obsessed over the layering of what may be the most perfect harmonies in rock history. At the time of its release, Pet Sounds was a commercial disappointment, largely because it broke from the unadulterated chirpiness of the Beach Boys' early work. "Wouldn't It Be Nice" and "God Only Knows" teeter on the edge between adolescent euphoria and adult lament, while "I Just Wasn't Made For These Times" provided what was to become Wilson's defining lyric: "Sometimes I feel very sad"…
CD - Tracklist:

01. Wouldn't It Be Nice
02. You Still Believe In Me
03. That's Not Me
04. Don't Talk (Put Your Head On My Shoulder)
05. I'm Waiting For The Day
06. Let's Go Away For Awhile
07. Sloop John B
08. God Only Knows
09. I Know There's An Answer
10. Here Today
11. I Just Wasn't Made For These Times
12. Pet Sounds
13. Caroline No
14. Hang On To Your Ego
15. Wouldn't It Be Nice [Stereo]
16. You Still Believe In Me [Stereo]
17. That's Not Me [Stereo]
18. Don't Talk (Put Your Head On My Shoulder) [Stereo]
19. I'm Waiting For The Day [Stereo]
20. Let's Go Away For Awhile [Stereo]
21. Sloop John B [Stereo]
22. God Only Knows [Stereo]
23. I Know There's An Answer [Stereo]
24. Here Today [Stereo]
25. I Just Wasn't Made For These Times [Stereo]
26. Pet Sounds [Stereo]
27. Caroline No [Stereo]

Tracks 1-13: Original mono program
Track 14: Bonus track, mono
Tracks 15-27: Original program in stereo

Exact Audio Copy V0.99 prebeta 4 from 23. January 2008

EAC extraction logfile from 22. December 2008, 5:46

The Beach Boys / Pet Sounds: 40th Anniversary

Used drive : PLEXTOR CD-R PREMIUM2 Adapter: 1 ID: 1

Read mode : Secure
Utilize accurate stream : Yes
Defeat audio cache : Yes
Make use of C2 pointers : No

Read offset correction : 30
Overread into Lead-In and Lead-Out : Yes
Fill up missing offset samples with silence : Yes
Delete leading and trailing silent blocks : No
Null samples used in CRC calculations : Yes
Used interface : Installed external ASPI interface

Used output format : Internal WAV Routines
Sample format : 44.100 Hz; 16 Bit; Stereo


TOC of the extracted CD

Track | Start | Length | Start sector | End sector
––––––––––––––––––––––––––––-
1 | 0:00.00 | 2:25.08 | 0 | 10882
2 | 2:25.08 | 2:31.43 | 10883 | 22250
3 | 4:56.51 | 2:28.52 | 22251 | 33402
4 | 7:25.28 | 2:53.30 | 33403 | 46407
5 | 10:18.58 | 3:05.11 | 46408 | 60293
6 | 13:23.69 | 2:20.35 | 60294 | 70828
7 | 15:44.29 | 2:58.51 | 70829 | 84229
8 | 18:43.05 | 2:51.47 | 84230 | 97101
9 | 21:34.52 | 3:10.24 | 97102 | 111375
10 | 24:45.01 | 2:55.24 | 111376 | 124524
11 | 27:40.25 | 3:14.16 | 124525 | 139090
12 | 30:54.41 | 2:22.44 | 139091 | 149784
13 | 33:17.10 | 2:53.67 | 149785 | 162826
14 | 36:11.02 | 3:14.41 | 162827 | 177417
15 | 39:25.43 | 2:33.13 | 177418 | 188905
16 | 41:58.56 | 2:36.24 | 188906 | 200629
17 | 44:35.05 | 2:31.31 | 200630 | 211985
18 | 47:06.36 | 2:58.32 | 211986 | 225367
19 | 50:04.68 | 3:06.58 | 225368 | 239375
20 | 53:11.51 | 2:24.53 | 239376 | 250228
21 | 55:36.29 | 2:59.35 | 250229 | 263688
22 | 58:35.64 | 2:54.68 | 263689 | 276806
23 | 61:30.57 | 3:18.26 | 276807 | 291682
24 | 64:49.08 | 3:07.31 | 291683 | 305738
25 | 67:56.39 | 3:21.13 | 305739 | 320826
26 | 71:17.52 | 2:37.50 | 320827 | 332651
27 | 73:55.27 | 3:34.32 | 332652 | 348733


Range status and errors

Selected range

Filename C:\200\The Beach Boys - Pet Sounds (1966, 40th Ann. Edition 2006)\The Beach Boys - Pet Sounds (40th Anniversary).wav

Peak level 96.6 %
Range quality 100.0 %
Copy CRC 438DF8F6
Copy OK

No errors occurred


AccurateRip summary

Track 1 accurately ripped (confidence 24) [9B937C41]
Track 2 accurately ripped (confidence 24) [C56D64F4]
Track 3 accurately ripped (confidence 24) [726C3867]
Track 4 accurately ripped (confidence 24) [E61063CF]
Track 5 accurately ripped (confidence 24) [770C6D48]
Track 6 accurately ripped (confidence 24) [E80A8D2F]
Track 7 accurately ripped (confidence 24) [A6791205]
Track 8 accurately ripped (confidence 24) [EED058E3]
Track 9 accurately ripped (confidence 24) [3AE37CE9]
Track 10 accurately ripped (confidence 23) [207978E5]
Track 11 accurately ripped (confidence 24) [5DEE970C]
Track 12 accurately ripped (confidence 24) [8492085A]
Track 13 accurately ripped (confidence 24) [5A80E666]
Track 14 accurately ripped (confidence 26) [847AEBE2]
Track 15 accurately ripped (confidence 26) [E7C67FAC]
Track 16 accurately ripped (confidence 26) [23DFC578]
Track 17 accurately ripped (confidence 26) [4D9A9C50]
Track 18 accurately ripped (confidence 26) [97480AC3]
Track 19 accurately ripped (confidence 26) [BED09F9E]
Track 20 accurately ripped (confidence 26) [C333702F]
Track 21 accurately ripped (confidence 26) [62B3146E]
Track 22 accurately ripped (confidence 26) [6A05C7D3]
Track 23 accurately ripped (confidence 26) [A638E5B3]
Track 24 accurately ripped (confidence 26) [C1C20A67]
Track 25 accurately ripped (confidence 26) [262B5DF5]
Track 26 accurately ripped (confidence 26) [B2096C14]
Track 27 accurately ripped (confidence 22) [88F852BE]

All tracks accurately ripped

End of status report



Video Program:

01. The Making of Pet Sounds
02. Pet Stories
03. Rhythm of Life: Sir George Martin & Brian Wilson in the Studio
04. Good Vibrations (Original 1966 promotional film)
05. Sloop John B (Original 1966 promotional film)
06. Pet Sounds (Original 1966 promotional film)
07. God Only Knows (photo gallery)


XviD 640x432, 0,19 b/px, 29,97 FPS
Audio: Dolby AC3 224 Kbps, 48 kHz
Language: English
Run Time: 56:05 minutes
File Size: 700 MB



Original Recordings Produced by Brian Wilson
40th Anniversary Limited-Edition Producers:
Rob Christie (CD) & Kevin Flaherty (DVD).
Remastered by Joe Gastwirt at Ocean Digital Mastering (2000)

• Mike Love - vocals
• Brian Wilson - vocals, organ, piano
• Carl Wilson - vocals, guitar
• Dennis Wilson - vocals, drums
• Al Jardine - vocals, tambourine
• Bruce Johnston - vocals

Original Release Date: May 16, 1966
Re-Release Date: August 29, 2006
Number of Discs: 2 (CD & DVD)
Format: Digitally remastered using HDCD process
Label: Capitol Records
Catalog No.: 69939-2