Subcategories

Silicon Valley S01 (2014)

Posted By: a4s
Silicon Valley S01 (2014)

Silicon Valley S01 (2014)
HDRip | AVI / XviD@1500 kb/s | 720x400 | 8x30mn | 8x350 MB
Audio: English: AC3, 192 kb/s (2 ch)
WEB-DL 720p | MKV / AVC@4000 kb/s | 1280x718 | 8x30mn | 8x1.00 GB
Audio: English: AC3, 384 kb/s (6 ch) | Subtiltes: English (full)
Genre: Comedy

In the high-tech gold rush of modern Silicon Valley, the people most qualified to succeed are the least capable of handling success. A comedy partially inspired by Mike Judge's own experiences as a Silicon Valley engineer in the late 1980s.

HDRip

General
Complete name : Silicon.Valley.S01E01.WEB-DLRip.DD2.0.XviD.avi
Format : AVI
Format/Info : Audio Video Interleave
File size : 357 MiB
Duration : 29mn 21s
Overall bit rate : 1 701 Kbps
Writing application : VirtualDubMod 1.5.10.2 (build 2542/release)
Writing library : VirtualDubMod build 2542/release

Video
ID : 0
Format : MPEG-4 Visual
Format profile : Advanced Simple@L5
Format settings, BVOP : 2
Format settings, QPel : No
Format settings, GMC : No warppoints
Format settings, Matrix : Default (MPEG)
Codec ID : XVID
Codec ID/Hint : XviD
Duration : 29mn 21s
Bit rate : 1 500 Kbps
Width : 720 pixels
Height : 400 pixels
Display aspect ratio : 16:9
Frame rate : 23.976 fps
Color space : YUV
Chroma subsampling : 4:2:0
Bit depth : 8 bits
Scan type : Progressive
Compression mode : Lossy
Bits/(Pixel*Frame) : 0.217
Stream size : 315 MiB (88%)
Writing library : XviD 67

Audio
ID : 1
Format : AC-3
Format/Info : Audio Coding 3
Mode extension : CM (complete main)
Format settings, Endianness : Big
Codec ID : 2000
Duration : 29mn 21s
Bit rate mode : Constant
Bit rate : 192 Kbps
Channel(s) : 2 channels
Channel positions : Front: L R
Sampling rate : 48.0 KHz
Compression mode : Lossy
Stream size : 40.3 MiB (11%)
Alignment : Split accross interleaves
Interleave, duration : 42 ms (1.00 video frame)
Interleave, preload duration : 500 ms



Silicon Valley S01 (2014)

Silicon Valley S01 (2014)

Silicon Valley S01 (2014)

Silicon Valley S01 (2014)


WEB-DL 720p

General
Unique ID : 252690561496251261496860467421525057720 (0xBE1A6E9152E5A0BC8B81DB687EAC20B8)
Complete name : Silicon.Valley.S01E01.720p.WEB-DL.DD5.1.H.264.mkv
Format : Matroska
Format version : Version 4 / Version 2
File size : 930 MiB
Duration : 29mn 21s
Overall bit rate : 4 427 Kbps
Encoded date : UTC 2016-06-21 15:38:53
Writing application : mkvmerge v8.3.0 ('Over the Horizon') 64bit
Writing library : libebml v1.3.1 + libmatroska v1.4.2

Video
ID : 1
Format : AVC
Format/Info : Advanced Video Codec
Format profile : High@L3.1
Format settings, CABAC : No
Format settings, ReFrames : 2 frames
Format settings, GOP : N=1
Codec ID : V_MPEG4/ISO/AVC
Duration : 29mn 21s
Bit rate : 3 955 Kbps
Width : 1 280 pixels
Height : 718 pixels
Display aspect ratio : 16:9
Frame rate mode : Constant
Frame rate : 23.976 fps
Color space : YUV
Chroma subsampling : 4:2:0
Bit depth : 8 bits
Scan type : Progressive
Bits/(Pixel*Frame) : 0.179
Stream size : 831 MiB (89%)
Language : English
Default : Yes
Forced : No
Color range : Limited
Color primaries : BT.709
Transfer characteristics : BT.709
Matrix coefficients : BT.709

Audio
ID : 2
Format : AC-3
Format/Info : Audio Coding 3
Mode extension : CM (complete main)
Format settings, Endianness : Big
Codec ID : A_AC3
Duration : 29mn 21s
Bit rate mode : Constant
Bit rate : 384 Kbps
Channel(s) : 6 channels
Channel positions : Front: L C R, Side: L R, LFE
Sampling rate : 48.0 KHz
Compression mode : Lossy
Stream size : 80.6 MiB (9%)
Language : English
Default : Yes
Forced : No

Text
ID : 3
Format : UTF-8
Codec ID : S_TEXT/UTF8
Codec ID/Info : UTF-8 Plain Text
Language : English
Default : No
Forced : No



Silicon Valley S01 (2014)

Silicon Valley S01 (2014)

Silicon Valley S01 (2014)

Silicon Valley S01 (2014)
http://nitroflare.com/view/55DB53F2540E757/Silicon.Valley.S01E01.WEB-DLRip.DD2.0.XviD.avi
http://nitroflare.com/view/F894CC11CEF1089/Silicon.Valley.S01E02.WEB-DLRip.DD2.0.XviD.avi
http://nitroflare.com/view/FBDA3B101249A59/Silicon.Valley.S01E03.WEB-DLRip.DD2.0.XviD.avi
http://nitroflare.com/view/37F90CD72BC73E8/Silicon.Valley.S01E04.WEB-DLRip.DD2.0.XviD.avi
http://nitroflare.com/view/7C122A2CADED713/Silicon.Valley.S01E05.WEB-DLRip.DD2.0.XviD.avi
http://nitroflare.com/view/169ECB475946820/Silicon.Valley.S01E06.WEB-DLRip.DD2.0.XviD.avi
http://nitroflare.com/view/F4E4AC0063E73E7/Silicon.Valley.S01E07.WEB-DLRip.DD2.0.XviD.avi
http://nitroflare.com/view/CE415FB86FFE941/Silicon.Valley.S01E08.WEB-DLRip.DD2.0.XviD.avi

http://nitroflare.com/view/534EA8CD2100641/Silicon.Valley.S01.Eng.Sub.rar

http://nitroflare.com/view/40C1BFDF15B11CA/Silicon.Valley.S01E01.720p.WEB-DL.DD5.1.H.264.mkv
http://nitroflare.com/view/D7FE791718C4C24/Silicon.Valley.S01E02.720p.WEB-DL.DD5.1.H.264.mkv
http://nitroflare.com/view/512174D8769FCAE/Silicon.Valley.S01E03.720p.WEB-DL.DD5.1.H.264.mkv
http://nitroflare.com/view/26725C3BBBE6559/Silicon.Valley.S01E04.720p.WEB-DL.DD5.1.H.264.mkv
http://nitroflare.com/view/E5C18E3EDD7EE18/Silicon.Valley.S01E05.720p.WEB-DL.DD5.1.H.264.mkv
http://nitroflare.com/view/EBC71018F73E2A9/Silicon.Valley.S01E06.720p.WEB-DL.DD5.1.H.264.mkv
http://nitroflare.com/view/5C8BE7594054A8D/Silicon.Valley.S01E07.720p.WEB-DL.DD5.1.H.264.mkv
http://nitroflare.com/view/9D7F69070C51A34/Silicon.Valley.S01E08.720p.WEB-DL.DD5.1.H.264.mkv