Word of Honor (2003)

Posted By: NaVi7
Word of Honor (2003)

Word of Honor (2003)
DVDRip | AVI / XVID, 2021 Kbps | 720x544 | 1h 31mn | 1.37 GB
English: MP3, 128 Kbps (2 ch) | Subtitles: Portuguese, English
Genre: Drama

Prompted by a just-published book that holds ex-lieutenant Ben Tyson accountable for a hushed-up massacre committed by his platoon in a Hue hospital 18 years before, the army recalls Tyson to stand trial for murder. Tyson, confronted by an army authority anxious to save its own face, an embarrassed federal government, and a threatened marriage, and entangled, furthermore, in his own past lives and present sense of guilt, must call on all his cleverness and his own inner toughness to fight his case.

imdb - 1 nomination.

General
Complete name : Word of Honor 2003 FS DVDrip Xvid-OlFa.avi
Format : AVI
Format/Info : Audio Video Interleave
File size : 1.37 GiB
Duration : 1h 31mn
Overall bit rate : 2 156 Kbps
Writing application : VirtualDubMod 1.5.4.1 (build 2178/release)
Writing library : VirtualDubMod build 2178/release

Video
ID : 0
Format : MPEG-4 Visual
Format profile : Advanced Simple@L5
Format settings, BVOP : 1
Format settings, QPel : No
Format settings, GMC : No warppoints
Format settings, Matrix : Default (H.263)
Muxing mode : Packed bitstream
Codec ID : XVID
Codec ID/Hint : XviD
Duration : 1h 31mn
Bit rate : 2 021 Kbps
Width : 720 pixels
Height : 544 pixels
Display aspect ratio : 4:3
Frame rate : 23.976 fps
Color space : YUV
Chroma subsampling : 4:2:0
Bit depth : 8 bits
Scan type : Progressive
Compression mode : Lossy
Bits/(Pixel*Frame) : 0.215
Stream size : 1.29 GiB (94%)
Writing library : XviD 1.2.1 (UTC 2008-12-04)

Audio
ID : 1
Format : MPEG Audio
Format version : Version 1
Format profile : Layer 3
Mode : Joint stereo
Codec ID : 55
Codec ID/Hint : MP3
Duration : 1h 31mn
Bit rate mode : Constant
Bit rate : 128 Kbps
Channel count : 2 channels
Sampling rate : 48.0 KHz
Compression mode : Lossy
Stream size : 83.4 MiB (6%)
Alignment : Aligned on interleaves
Interleave, duration : 83 ms (2.00 video frames)
Interleave, preload duration : 504 ms
Writing library : LAME3.98r
Encoding settings : -m j -V 4 -q 2 -lowpass 17 -b 128


screenshots:

Word of Honor (2003)

Word of Honor (2003)

Word of Honor (2003)