Subcategories

The War Within (2005)

Posted By: king-ston
The War Within (2005)

The War Within (2005)
BDRip | MP4 | AVC, 2500 Kbps | 1920x1080 | 23.976 fps | 1.76 GB | Runtime: 92 Min
Audio : English AAC 224 Kbps | 6 channels | 48 KHz | Subtitle : None
Genre: Drama

Sayeed Choudhury was born Pakistan but has immigrated to the U.S.A., where he now lives in New York with his wife, Farida; a school-going daughter, Rasheeda; a school-going son, Ali; and unmarried sister, Duri. One morning Farida hears a knock on the door, Ali opens it and there is Sayeed's childhood friend, Hassan, who is welcomed with open arms by the family. Hassan informs them that he is going to be hired soon in the States and he is invited to spend a few days with the Choudhury family. Duri, who has a Caucasian boyfriend, Mike, is also thrilled to meet Hassan and openly shows her attraction to him. Ali also takes an instant liking to Hassan, and is taught the true values of Islam, and when one Muslim hurts, then the pain is felt by Muslims worldwide. Sayeed is quite content with the American way of life and feels secure and comfortable especially when he sees Germans, Jews, Muslims, Catholics, and non-believers living in harmony and doing business with each other. Sayeed will …
IMDB



Video
ID : 1
Format : AVC
Format/Info : Advanced Video Codec
Format profile : High@L4.1
Format settings, CABAC : Yes
Format settings, ReFrames : 4 frames
Codec ID : avc1
Codec ID/Info : Advanced Video Coding
Duration : 1h 32mn
Bit rate : 2 500 Kbps
Width : 1 920 pixels
Height : 1 080 pixels
Display aspect ratio : 16:9
Frame rate mode : Constant
Frame rate : 23.976 (23976/1000) fps
Color space : YUV
Chroma subsampling : 4:2:0
Bit depth : 8 bits
Scan type : Progressive
Bits/(Pixel*Frame) : 0.050
Stream size : 1.62 GiB (92%)
Writing library : x264 core 148 r2638M 7599210
Encoding settings : cabac=1 / ref=4 / deblock=1:-1:-1 / analyse=0x3:0x113 / me=umh / subme=9 / psy=1 / psy_rd=1.00:0.15 / mixed_ref=1 / me_range=24 / chroma_me=1 / trellis=2 / 8x8dct=1 / cqm=0 / deadzone=21,11 / fast_pskip=1 / chroma_qp_offset=-3 / threads=32 / lookahead_threads=4 / sliced_threads=0 / nr=0 / decimate=1 / interlaced=0 / bluray_compat=0 / constrained_intra=0 / bframes=3 / b_pyramid=2 / b_adapt=2 / b_bias=0 / direct=3 / weightb=1 / open_gop=0 / weightp=2 / keyint=250 / keyint_min=25 / scenecut=40 / intra_refresh=0 / rc_lookahead=50 / rc=2pass / mbtree=1 / bitrate=2500 / ratetol=1.0 / qcomp=0.60 / qpmin=0 / qpmax=69 / qpstep=4 / cplxblur=20.0 / qblur=0.5 / vbv_maxrate=31250 / vbv_bufsize=31250 / nal_hrd=none / filler=0 / ip_ratio=1.40 / aq=3:1.00
Encoded date : UTC 2016-04-03 03:07:35
Tagged date : UTC 2016-04-03 03:07:35

Audio
ID : 2
Format : AAC
Format/Info : Advanced Audio Codec
Format profile : LC
Codec ID : 40
Duration : 1h 32mn
Duration_LastFrame : 43ms
Bit rate mode : Constant
Bit rate : 224 Kbps
Channel(s) : 2 channels
Channel(s)_Original : 6 channels
Channel positions : Front: L C R, Side: L R, LFE
Sampling rate : 48.0 KHz
Frame rate : 46.875 fps (1024 spf)
Compression mode : Lossy
Stream size : 149 MiB (8%)
Language : English
Default : Yes
Alternate group : 1
Encoded date : UTC 2016-04-03 03:07:35
Tagged date : UTC 2016-04-03 03:07:35


The War Within (2005)