Tags
Language
Tags

BSkyB - The Moon Our Gateway to the Universe (2017)

Posted By: notbanned
1080p (FullHD) / HDTV
BSkyB - The Moon Our Gateway to the Universe (2017)

BSkyB - The Moon Our Gateway to the Universe (2017)
HDTV | 1920x1080 | .MP4/AVC @ 3030 Kbps | 52 min 8 s | 1.16 GiB
Audio: English AAC 157 kbps, 2 channels | Subs: English
Genre: Documentary

The Moon has always been a focus of curiosity and yet, our neighbor in space still holds many mysteries. But we are on the verge of a new age of exploration: over the next years, privately financed teams are going to send unmanned vehicles to the Moon.

General
Complete name : The.Moon.Our.Gateway.To.The.Universe.1080p.mp4
Format : MPEG-4
Format profile : Base Media
Codec ID : isom (isom/iso2/avc1/mp41)
File size : 1.16 GiB
Duration : 52 min 8 s
Overall bit rate mode : Variable
Overall bit rate : 3 194 kb/s

Video
ID : 1
Format : AVC
Format/Info : Advanced Video Codec
Format profile : High@L4
Format settings, CABAC : Yes
Format settings, ReFrames : 4 frames
Codec ID : avc1
Codec ID/Info : Advanced Video Coding
Duration : 52 min 8 s
Bit rate : 3 030 kb/s
Width : 1 920 pixels
Height : 1 080 pixels
Display aspect ratio : 16:9
Frame rate mode : Constant
Frame rate : 25.000 FPS
Color space : YUV
Chroma subsampling : 4:2:0
Bit depth : 8 bits
Scan type : Progressive
Bits/(Pixel*Frame) : 0.058
Stream size : 1.10 GiB (95%)

Audio
ID : 2
Format : AAC
Format/Info : Advanced Audio Codec
Format profile : LC
Codec ID : 40
Duration : 52 min 8 s
Bit rate mode : Constant
Bit rate : 157 kb/s
Channel(s) : 2 channels
Channel positions : Front: L R
Sampling rate : 48.0 kHz
Frame rate : 46.875 FPS (1024 spf)
Compression mode : Lossy
Stream size : 58.7 MiB (5%)
Default : Yes
Alternate group : 1

Text
ID : 3
Format : Timed Text
Muxing mode : sbtl
Codec ID : tx3g
Duration : 51 min 43 s
Bit rate mode : Variable
Bit rate : 92 b/s
Stream size : 35.0 KiB (0%)
Language : Avestan
Default : Yes
Forced : No
Alternate group : 3


Screenshots:

BSkyB - The Moon Our Gateway to the Universe (2017)

BSkyB - The Moon Our Gateway to the Universe (2017)

BSkyB - The Moon Our Gateway to the Universe (2017)

BSkyB - The Moon Our Gateway to the Universe (2017)