Tags
Language
Tags

Demand Media - The History of the VW Camper Van (2011)

Posted By: notbanned
1080p (FullHD) / HDTV
Demand Media - The History of the VW Camper Van (2011)

Demand Media - The History of the VW Camper Van (2011)
HDTV | 1920x1080 | .MP4/AVC @ 3407 Kbps | 1 h 21 min | 2.04 GiB
Audio: English AAC 157 kbps, 2 channels | Subs: English
Genre: Documentary

The iconic VW Camper Van has stood the test of time through five generations and more than six decades. The History of The VW Camper Van traces this evolution through every generation.

General
Complete name : The.History.of.the.VW.Camper.Van.1080p.mp4
Format : MPEG-4
Format profile : Base Media
Codec ID : isom (isom/iso2/avc1/mp41)
File size : 2.04 GiB
Duration : 1 h 21 min
Overall bit rate mode : Variable
Overall bit rate : 3 570 kb/s

Video
ID : 1
Format : AVC
Format/Info : Advanced Video Codec
Format profile : High@L4
Format settings, CABAC : Yes
Format settings, ReFrames : 4 frames
Codec ID : avc1
Codec ID/Info : Advanced Video Coding
Duration : 1 h 21 min
Bit rate : 3 407 kb/s
Width : 1 920 pixels
Height : 1 080 pixels
Display aspect ratio : 16:9
Frame rate mode : Constant
Frame rate : 25.000 FPS
Color space : YUV
Chroma subsampling : 4:2:0
Bit depth : 8 bits
Scan type : Progressive
Bits/(Pixel*Frame) : 0.066
Stream size : 1.95 GiB (95%)

Audio
ID : 2
Format : AAC
Format/Info : Advanced Audio Codec
Format profile : LC
Codec ID : 40
Duration : 1 h 21 min
Bit rate mode : Constant
Bit rate : 157 kb/s
Channel(s) : 2 channels
Channel positions : Front: L R
Sampling rate : 48.0 kHz
Frame rate : 46.875 FPS (1024 spf)
Compression mode : Lossy
Stream size : 92.3 MiB (4%)
Default : Yes
Alternate group : 1

Text
ID : 3
Format : Timed Text
Muxing mode : sbtl
Codec ID : tx3g
Duration : 1 h 21 min
Bit rate mode : Variable
Bit rate : 103 b/s
Stream size : 61.1 KiB (0%)
Language : Avestan
Default : Yes
Forced : No
Alternate group : 3


Screenshots:

Demand Media - The History of the VW Camper Van (2011)

Demand Media - The History of the VW Camper Van (2011)

Demand Media - The History of the VW Camper Van (2011)

Demand Media - The History of the VW Camper Van (2011)