Subcategories

The Edge of Seventeen (2016)

Posted By: EXGenerator
The Edge of Seventeen (2016)

The Edge of Seventeen (2016)
BDRip | AVI | 1h 44mn | 720x384 | XVID@792 Kbps | French (dubbed) | MP3@128 Kpbs | 2 channels | Subtitles: None | 694 MB
Genre: Comedy, Drama

Nadine et Krista découvrent le monde merveilleux du lycée. Mais leur belle amitié est mise à mal lorsque la première apprend que la seconde sort avec son grand frère…



Video
ID : 0
Format : MPEG-4 Visual
Format profile : Advanced Simple@L5
Format settings, BVOP : 1
Format settings, QPel : No
Format settings, GMC : No warppoints
Format settings, Matrix : Default (H.263)
Muxing mode : Packed bitstream
Codec ID : XVID
Codec ID/Hint : XviD
Duration : 1 h 44 min
Bit rate : 792 kb/s
Width : 720 pixels
Height : 384 pixels
Display aspect ratio : 1.85:1
Frame rate : 23.976 (24000/1001) FPS
Color space : YUV
Chroma subsampling : 4:2:0
Bit depth : 8 bits
Scan type : Progressive
Compression mode : Lossy
Bits/(Pixel*Frame) : 0.119
Stream size : 594 MiB (86%)
Writing library : XviD 1.2.1 (UTC 2008-12-04)

Audio
ID : 1
Format : MPEG Audio
Format version : Version 1
Format profile : Layer 3
Mode : Joint stereo
Mode extension : MS Stereo
Codec ID : 55
Codec ID/Hint : MP3
Duration : 1 h 44 min
Bit rate mode : Constant
Bit rate : 128 kb/s
Channel(s) : 2 channels
Sampling rate : 48.0 kHz
Compression mode : Lossy
Stream size : 96.1 MiB (14%)
Alignment : Aligned on interleaves
Interleave, duration : 167 ms (4.00 video frames)
Interleave, preload duration : 216 ms
Title : m
Writing library : LAME3.99r
Encoding settings : -m j -V 4 -q 2 -lowpass 17 -b 128



BDRiP screenshots

The Edge of Seventeen (2016)

The Edge of Seventeen (2016)

The Edge of Seventeen (2016)

The Edge of Seventeen (2016)