Free State of Jones (2016)

Posted By: Without
Free State of Jones (2016)

Free State of Jones (2016)
CAMRip | MP4 | 720x392 | AVC@1009 Kbps | English AAC@99.7 Kbps | 2 channels | 2h 15mn | 1.05 GB
Genre: Action, Biography, Drama

A disillusioned Confederate army deserter returns to Mississippi and leads a militia of fellow deserters, runaway slaves, and women in an uprising against the corrupt local Confederate government.



General
Complete name : J:\FREE_STATE_OF_JONES..mp4
Format : MPEG-4
Format profile : Base Media / Version 2
Codec ID : mp42 (mp42/isom/avc1)
File size : 1.05 GiB
Duration : 2h 15mn
Overall bit rate mode : Variable
Overall bit rate : 1 114 Kbps
Movie name : FREE_STATE_OF_JONES.Title4
Album : FREE_STATE_OF_JONES
Encoded date : UTC 2016-07-19 01:02:12
Tagged date : UTC 2016-07-19 01:35:19
Writing application : DVDFab
covr : Unknown kind of value!

Video
ID : 1
Format : AVC
Format/Info : Advanced Video Codec
Format profile : Main@L3
Format settings, CABAC : Yes
Format settings, ReFrames : 1 frame
Format settings, GOP : M=1, N=24
Codec ID : avc1
Codec ID/Info : Advanced Video Coding
Duration : 2h 15mn
Source duration : 2h 15mn
Bit rate : 1 009 Kbps
Width : 720 pixels
Height : 392 pixels
Display aspect ratio : 1.85:1
Frame rate mode : Constant
Frame rate : 23.976 (24000/1001) fps
Color space : YUV
Chroma subsampling : 4:2:0
Bit depth : 8 bits
Scan type : Progressive
Bits/(Pixel*Frame) : 0.149
Stream size : 978 MiB (91%)
Source stream size : 978 MiB (91%)
Writing library : x264 core
Encoded date : UTC 2016-07-19 01:02:12
Tagged date : UTC 2016-07-19 01:35:15
Color range : Limited
Color primaries : BT.601 NTSC
Transfer characteristics : BT.709
Matrix coefficients : BT.601
Menus : 3

Audio
ID : 2
Format : AAC
Format/Info : Advanced Audio Codec
Format profile : LC
Codec ID : 40
Duration : 2h 15mn
Bit rate mode : Variable
Bit rate : 99.7 Kbps
Maximum bit rate : 162 Kbps
Channel(s) : 2 channels
Channel positions : Front: L R
Sampling rate : 48.0 KHz
Frame rate : 46.875 fps (1024 spf)
Compression mode : Lossy
Stream size : 96.7 MiB (9%)
Title : English (aac 2.0)
Language : English
Default : Yes
Alternate group : 1
Encoded date : UTC 2016-07-19 01:02:12
Tagged date : UTC 2016-07-19 01:34:56

Menu
ID : 3
Codec ID : text
Duration : 2h 15mn
Encoded date : UTC 2016-07-19 01:02:12
Tagged date : UTC 2016-07-19 01:35:19
Menu For : 1
Source duration : 8129955
Source frame count : 31
Source stream size : 735
Frame count : 31
Stream size : 735
00:00:00.000 : Chapter 1
00:04:29.018 : Chapter 2
00:08:58.037 : Chapter 3
00:13:28.015 : Chapter 4
00:17:57.034 : Chapter 5
00:22:27.012 : Chapter 6
00:26:56.030 : Chapter 7
00:31:26.008 : Chapter 8
00:35:55.027 : Chapter 9
00:40:25.005 : Chapter 10
00:44:54.024 : Chapter 11
00:49:24.002 : Chapter 12
00:53:53.021 : Chapter 13
00:58:22.039 : Chapter 14
01:02:52.018 : Chapter 15
01:07:21.036 : Chapter 16
01:11:51.014 : Chapter 17
01:16:20.033 : Chapter 18
01:20:50.011 : Chapter 19
01:25:19.030 : Chapter 20
01:29:49.008 : Chapter 21
01:34:18.027 : Chapter 22
01:38:48.005 : Chapter 23
01:43:17.023 : Chapter 24
01:47:47.001 : Chapter 25
01:52:16.020 : Chapter 26
01:56:45.039 : Chapter 27
02:01:15.017 : Chapter 28
02:05:44.036 : Chapter 29
02:10:14.014 : Chapter 30
02:14:43.032 : Chapter 31
Bit rate mode : VBR


CAMRip Screenshots

Free State of Jones (2016)

Free State of Jones (2016)

Free State of Jones (2016)


Come Visit My Blog (•‿•)