Subcategories

Free State of Jones (2016)

Posted By: JohnSmith
Free State of Jones (2016)

Free State of Jones (2016)
BDRip 1080p | MKV / HEVC@2373 kb/s | 1920x1080 | 2h 19mn | 2.88 GB
English: AC3, 512 kb/s (6 ch) | Subtitles: Spanish, English
Genre: Action | Biography | Drama | History | War

A disillusioned Confederate army deserter returns to Mississippi and leads a militia of fellow deserters, runaway slaves, and women in an uprising against the corrupt local Confederate government.




General
Unique ID : 244660284485478599825119447966507644625 (0xB80FDB57DA80339AA82A983A6C78B6D1)
Complete name : D:\Downloads\Free State of Jones 2016 HEVC D3FiL3R (iso)\Free State of Jones 2016 BluRay 1080p HEVC DD5.1-D3FiL3R.mkv
Format : Matroska
Format version : Version 2
File size : 2.88 GiB
Duration : 2h 19mn
Overall bit rate : 2 943 Kbps
Movie name : Free State of Jones BluRay 1080p HEVC DD5.1-D3FiL3R
Encoded date : UTC 2016-09-17 08:36:31
Writing application : DVDFab 9.3.1.2
Writing library : libebml v0.7.8 + libmatroska v0.8.1

Video
ID : 1
Format : HEVC
Format/Info : High Efficiency Video Coding
Format profile : Main@L5@High
Codec ID : V_MPEGH/ISO/HEVC
Duration : 2h 19mn
Bit rate : 2 373 Kbps
Width : 1 920 pixels
Height : 1 080 pixels
Display aspect ratio : 16:9
Frame rate mode : Constant
Frame rate : 23.976 fps
Color space : YUV
Chroma subsampling : 4:2:0
Bit depth : 8 bits
Bits/(Pixel*Frame) : 0.048
Stream size : 2.32 GiB (81%)
Default : Yes
Forced : No

Audio
ID : 2
Format : AC-3
Format/Info : Audio Coding 3
Mode extension : CM (complete main)
Format settings, Endianness : Big
Codec ID : A_AC3
Duration : 2h 19mn
Bit rate mode : Constant
Bit rate : 512 Kbps
Channel(s) : 6 channels
Channel positions : Front: L C R, Side: L R, LFE
Sampling rate : 48.0 KHz
Compression mode : Lossy
Stream size : 512 MiB (17%)
Language : English
Default : Yes
Forced : No

Text #1
ID : 3
Format : VobSub
Codec ID : S_VOBSUB
Codec ID/Info : Picture based subtitle format used on DVDs
Language : Spanish
Default : Yes
Forced : No

Text #2
ID : 4
Format : VobSub
Codec ID : S_VOBSUB
Codec ID/Info : Picture based subtitle format used on DVDs
Language : English
Default : No
Forced : No

Menu
00:00:00.000 : en:(01)00:00:00:000
00:08:19.499 : en:(02)00:08:19:499
00:13:55.835 : en:(03)00:13:55:835
00:22:14.249 : en:(04)00:22:14:249
00:30:56.312 : en:(05)00:30:56:312
00:37:39.924 : en:(06)00:37:39:924
00:46:02.634 : en:(07)00:46:02:634
00:49:49.194 : en:(08)00:49:49:194
00:56:08.615 : en:(09)00:56:08:615
01:05:06.027 : en:(10)01:05:06:027
01:13:32.199 : en:(11)01:13:32:199
01:19:58.752 : en:(12)01:19:58:752
01:30:22.667 : en:(13)01:30:22:667
01:36:43.172 : en:(14)01:36:43:172
01:42:49.746 : en:(15)01:42:49:746
01:50:23.491 : en:(16)01:50:23:491
01:55:44.729 : en:(17)01:55:44:729
02:02:43.731 : en:(18)02:02:43:731
02:06:56.525 : en:(19)02:06:56:525
02:13:11.942 : en:(20)02:13:11:942
02:19:55.095 : en:(21)02:19:55:095





Free State of Jones (2016)


Screenshots

Free State of Jones (2016)

Free State of Jones (2016)

Free State of Jones (2016)