Tags
Language
Tags

ABC - Four Corners: Putin's Road to War (2022)

Posted By: notbanned
1080p (FullHD) / HDTV
ABC - Four Corners: Putin's Road to War (2022)

ABC - Four Corners: Putin's Road to War (2022)
HDTV | 1920x1080 | .MKV/AVC @ 2612 Kbps | 45 min 31 s | 935 MiB
Audio: English MP2 256 kbps, 2 channels | Subs: English
Genre: Documentary

When Russia invaded Ukraine it overturned decades of stability. We trace Vladimir Putin's rise to power from his days as a KGB counterintelligence officer to his emergence as a global power player in the post Cold War era.

General
Unique ID : 123100393576182046099005487602376316140 (0x5C9C45FE8D990ED5DCBBD32870BB14EC)
Complete name : Four.Corners.Putins.Road.To.War.1080p.mkv
Format : Matroska
Format version : Version 4 / Version 2
File size : 935 MiB
Duration : 45 min 31 s
Overall bit rate : 2 871 kb/s

Video
ID : 1
Format : AVC
Format/Info : Advanced Video Codec
Format profile : High@L4
Format settings, CABAC : Yes
Format settings, ReFrames : 4 frames
Codec ID : V_MPEG4/ISO/AVC
Duration : 45 min 31 s
Bit rate : 2 612 kb/s
Width : 1 920 pixels
Height : 1 080 pixels
Display aspect ratio : 16:9
Frame rate mode : Constant
Frame rate : 25.000 FPS
Standard : Component
Color space : YUV
Chroma subsampling : 4:2:0
Bit depth : 8 bits
Scan type : MBAFF
Scan type, store method : Interleaved fields
Scan order : Top Field First
Bits/(Pixel*Frame) : 0.050
Stream size : 851 MiB (91%)
Default : Yes
Forced : No
Color range : Limited

Audio
ID : 2
Format : MPEG Audio
Format version : Version 1
Format profile : Layer 2
Codec ID : A_MPEG/L2
Codec ID/Hint : MP2
Duration : 45 min 31 s
Bit rate mode : Constant
Bit rate : 256 kb/s
Channel(s) : 2 channels
Sampling rate : 48.0 kHz
Frame rate : 41.667 FPS (1152 spf)
Compression mode : Lossy
Stream size : 83.4 MiB (9%)
Language : English
Default : Yes
Forced : No

Text
ID : 3
Format : UTF-8
Codec ID : S_TEXT/UTF8
Codec ID/Info : UTF-8 Plain Text
Duration : 45 min 1 s
Bit rate : 146 b/s
Count of elements : 1004
Stream size : 48.3 KiB (0%)
Language : English
Default : No
Forced : No


Screenshots:

ABC - Four Corners: Putin's Road to War (2022)

ABC - Four Corners: Putin's Road to War (2022)

ABC - Four Corners: Putin's Road to War (2022)

ABC - Four Corners: Putin's Road to War (2022)