Tags
Language
Tags

BluScenes: Majestic Waterfalls (2010)

Posted By: RSU75
1080p (FullHD) / BDRip
BluScenes: Majestic Waterfalls (2010)

BluScenes: Majestic Waterfalls (2010)
BDRip 1080p | MKV | AVC, 1920x1080, ~ 4.1 Mbps | 1hr 04mn | 2.92 GB
Audio (Music+Nature): DTS, 6 ch, 1510 kbps \ Audio (Music): AC3, 6 ch, 448 kbps
Audio (Nature): AC3, 2 ch, 448 kbps
Subtitles: None
Genre: Documentary, Music, Relax



Director: Jason Rosenfeld

Experience the natural beauty of waterfalls and cascades - From babbling brooks to the mighty Niagara Falls!
BluScenes: Majestic Waterfalls harnesses the grace and power of some of the world's most beautiful waterfalls and cascades with natural waterfall sounds and the option of listening to soothing music in Dolby 5.1 or DTS-HD 7.1 Master Audio.
From well-known destinations, such as Niagara and Iguaçu Falls to more intimate babbling brooks and cascades, Majestic Waterfalls provides a wonderful way to set a set a mood, while the white noise of the rushing water blocks out unwelcome distractions. Choose the "Waterfalls Only" or "Cascades Only" mode, or mix it up with the "Waterfalls and Cascades Montage."



General
Unique ID : 230961689221777233007946479098920251307 (0xADC19A73B19FB38884FD67ED32D52FAB)
Complete name : F:\BluScenes.MajesticWaterfalls.2010.1p.mkv
Format : Matroska
Format version : Version 4
File size : 2.92 GiB
Duration : 1 h 4 min
Overall bit rate : 6 468 kb/s
Movie name : Release RSU75 for the Bestmoviesworld.xyz
Encoded date : UTC 2022-06-24 03:46:56
Writing application : mkvmerge v8.3.0 ('Over the Horizon') 64bit
Writing library : libebml v1.3.1 + libmatroska v1.4.2

Video
ID : 1
Format : AVC
Format/Info : Advanced Video Codec
Format profile : High@L4.1
Format settings : CABAC / 4 Ref Frames
Format settings, CABAC : Yes
Format settings, Reference fra : 4 frames
Codec ID : V_MPEG4/ISO/AVC
Duration : 1 h 4 min
Bit rate : 4 100 kb/s
Width : 1 920 pixels
Height : 1 080 pixels
Display aspect ratio : 16:9
Frame rate mode : Constant
Frame rate : 23.976 (23976/1000) FPS
Color space : YUV
Chroma subsampling : 4:2:0
Bit depth : 8 bits
Scan type : Progressive
Bits/(Pixel*Frame) : 0.082
Stream size : 1.83 GiB (63%)
Writing library : x264 core 148 r2643 5c65704
Encoding settings : cabac=1 / ref=4 / deblock=1:0:0 / analyse=0x3:0x113 / me=umh / subme=8 / psy=1 / psy_rd=1.00:0.00 / mixed_ref=1 / me_range=24 / chroma_me=1 / trellis=1 / 8x8dct=1 / cqm=0 / deadzone=21,11 / fast_pskip=1 / chroma_qp_offset=-2 / threads=3 / lookahead_threads=1 / sliced_threads=0 / nr=0 / decimate=1 / interlaced=0 / bluray_compat=0 / constrained_intra=0 / bframes=3 / b_pyramid=0 / b_adapt=2 / b_bias=0 / direct=3 / weightb=1 / open_gop=0 / weightp=2 / keyint=250 / keyint_min=25 / scenecut=40 / intra_refresh=0 / rc_lookahead=40 / rc=abr / mbtree=1 / bitrate=4100 / ratetol=1.0 / qcomp=0.60 / qpmin=10 / qpmax=51 / qpstep=4 / ip_ratio=1.41 / aq=1:1.00
Language : English
Default : Yes
Forced : No

Audio #1
ID : 2
Format : DTS
Format/Info : Digital Theater Systems
Codec ID : A_DTS
Duration : 1 h 4 min
Bit rate mode : Constant
Bit rate : 1 509 kb/s
Channel(s) : 6 channels
Channel layout : C L R Ls Rs LFE
Sampling rate : 48.0 kHz
Frame rate : 93.750 FPS (512 SPF)
Bit depth : 24 bits
Compression mode : Lossy
Stream size : 697 MiB (23%)
Title : Surround 5.1
Language : English
Default : Yes
Forced : No

Audio #2
ID : 3
Format : AC-3
Format/Info : Audio Coding 3
Commercial name : Dolby Digital
Codec ID : A_AC3
Duration : 1 h 4 min
Bit rate mode : Constant
Bit rate : 448 kb/s
Channel(s) : 6 channels
Channel layout : L R C LFE Ls Rs
Sampling rate : 48.0 kHz
Frame rate : 31.250 FPS (1536 SPF)
Compression mode : Lossy
Stream size : 207 MiB (7%)
Title : Surround 5.1
Language : English
Service kind : Complete Main
Default : No
Forced : No

Audio #3
ID : 4
Format : AC-3
Format/Info : Audio Coding 3
Commercial name : Dolby Digital
Codec ID : A_AC3
Duration : 1 h 4 min
Bit rate mode : Constant
Bit rate : 448 kb/s
Channel(s) : 2 channels
Channel layout : L R
Sampling rate : 48.0 kHz
Frame rate : 31.250 FPS (1536 SPF)
Compression mode : Lossy
Stream size : 207 MiB (7%)
Title : Stereo
Language : English
Service kind : Complete Main
Default : No
Forced : No



Screenshots (click to enlarge to original size):

BluScenes: Majestic Waterfalls (2010)

BluScenes: Majestic Waterfalls (2010)

BluScenes: Majestic Waterfalls (2010)






More in My Blog



If you like this release please visit my blog
In it you will find releases of Relax