Tags
Language
Tags

SBS - Baiae: The Atlantis Of Rome (2021)

Posted By: notbanned
1080p (FullHD) / HDTV IMDb
SBS - Baiae: The Atlantis Of Rome (2021)

SBS - Baiae: The Atlantis Of Rome (2021)
HDTV | 1920x1080 | .MKV/AVC @ 4763 Kbps | 53 min 6 s | 1.84 GiB
Audio: English MP2 192 kbps, 2 channels | Subs: English
Genre: Documentary

With an area three times larger than Pompeii, Baiae, about 15km from Naples and within the volcanic area of the Phlegraean fields, is the largest underwater archaeological site in the world. In 100BC, Pompeii is an ordinary city of small traders crouched on the slopes of Mt. Vesuvius, while Baiae gains a peculiar reputation. It gradually becomes the ancient Las Vegas or Monte Carlo of the Roman Empire, a real posh centre for noble gens and the powerful. Today, the submerged remains of Baiae are protected by the creation of an archaeological park. This documentary reconstructs the life, history and secrets of the submerged city of Baiaa, Pozzuoli and Miseno, which were the most luxurious, fascinating, posh and dissolute corners of the Roman Empire.

General
Unique ID : 294243317391815960870729703903812924771 (0xDD5D339B683544998E17F1DC76D43563)
Complete name : Baiae.The.Atlantis.Of.Rome.2021.1080p.mkv
Format : Matroska
Format version : Version 4 / Version 2
File size : 1.84 GiB
Duration : 53 min 6 s
Overall bit rate : 4 957 kb/s

Video
ID : 1
Format : AVC
Format/Info : Advanced Video Codec
Format profile : High@L4
Format settings, CABAC : Yes
Format settings, ReFrames : 4 frames
Format settings, GOP : M=8, N=24
Codec ID : V_MPEG4/ISO/AVC
Duration : 53 min 6 s
Bit rate : 4 763 kb/s
Width : 1 920 pixels
Height : 1 080 pixels
Display aspect ratio : 16:9
Frame rate mode : Variable
Frame rate : 25.031 FPS
Original frame rate : 25.000 FPS
Standard : Component
Color space : YUV
Chroma subsampling : 4:2:0
Bit depth : 8 bits
Scan type : MBAFF
Scan type, store method : Interleaved fields
Scan order : Top Field First
Bits/(Pixel*Frame) : 0.092
Stream size : 1.77 GiB (96%)
Default : Yes
Forced : No
Color range : Limited
Color primaries : BT.709
Transfer characteristics : BT.709
Matrix coefficients : BT.709

Audio
ID : 2
Format : MPEG Audio
Format version : Version 1
Format profile : Layer 2
Codec ID : A_MPEG/L2
Codec ID/Hint : MP2
Duration : 53 min 6 s
Bit rate mode : Constant
Bit rate : 192 kb/s
Channel(s) : 2 channels
Sampling rate : 48.0 kHz
Frame rate : 41.667 FPS (1152 spf)
Compression mode : Lossy
Stream size : 72.9 MiB (4%)
Language : English
Default : Yes
Forced : No

Text
ID : 3
Format : UTF-8
Codec ID : S_TEXT/UTF8
Codec ID/Info : UTF-8 Plain Text
Duration : 53 min 1 s
Bit rate : 51 b/s
Count of elements : 506
Stream size : 20.1 KiB (0%)
Language : English
Default : No
Forced : No


Screenshots:

SBS - Baiae: The Atlantis Of Rome (2021)

SBS - Baiae: The Atlantis Of Rome (2021)

SBS - Baiae: The Atlantis Of Rome (2021)

SBS - Baiae: The Atlantis Of Rome (2021)