Index
# A B C D E F G H I J K L M N O P Q R S T U V W Y Z
Tags
Language
Tags
September 2022
Su Mo Tu We Th Fr Sa
28 29 30 31 1 2 3
4 5 6 7 8 9 10
11 12 13 14 15 16 17
18 19 20 21 22 23 24
25 26 27 28 29 30 1

Featured TV Shows


The Young Pope S01E05

Posted By: Tavaz
1080p (FullHD) / BluRay Remux IMDb
The Young Pope S01E05

The Young Pope S01E05
BluRay Remux | MKV | 1920x1080 | English | H264 @ 20895 kbps | DTS | 56 min 36 s | 9.65 GiB
Subtitles: Español, English
Genre: Drama


Lenny Belardo, the youngest and first American Pope in the history of the Church, must establish his new papacy and navigate the power struggles of the closed, secretive Vatican.

The.Young.Pope.S01E05.Episode.1.5.1080p.DTS-HD.MA.5.1.AVC.REMUX-FraMeSToR.part1.rar (5.1 GB)
The.Young.Pope.S01E05.Episode.1.5.1080p.DTS-HD.MA.5.1.AVC.REMUX-FraMeSToR.part2.rar (4.7 GB)



General
Unique ID : 216084444336975663728515857019777862463 (0xA29059A5D250243E8FD4CF9936804B3F)
Complete name : ./bcdb080d27d34c27bed6d1b5ce13824b.mkv
Format : Matroska
Format version : Version 4 / Version 2
File size : 9.65 GiB
Duration : 56 min 36 s
Overall bit rate mode : Variable
Overall bit rate : 24.4 Mb/s
Movie name : The Young Pope S01E05
Encoded date : UTC 2017-11-09 19:25:01
Writing application : mkvmerge v16.0.0 ('Protest') 64-bit
Writing library : libebml v1.3.5 + libmatroska v1.4.8

Video
ID : 1
Format : AVC
Format/Info : Advanced Video Codec
Format profile : High@L4.1
Format settings : CABAC / 4 Ref Frames
Format settings, CABAC : Yes
Format settings, RefFrames : 4 frames
Codec ID : V_MPEG4/ISO/AVC
Duration : 56 min 36 s
Bit rate mode : Variable
Bit rate : 20.9 Mb/s
Maximum bit rate : 39.0 Mb/s
Width : 1 920 pixels
Height : 1 080 pixels
Display aspect ratio : 16:9
Frame rate mode : Constant
Frame rate : 23.976 (24000/1001) FPS
Color space : YUV
Chroma subsampling : 4:2:0
Bit depth : 8 bits
Scan type : Progressive
Bits/(Pixel*Frame) : 0.420
Stream size : 8.26 GiB (86%)
Default : Yes
Forced : No

Audio
ID : 2
Format : DTS
Format/Info : Digital Theater Systems
Format profile : MA / Core
Mode : 16
Format settings, Endianness : Big
Codec ID : A_DTS
Duration : 56 min 36 s
Bit rate mode : Variable / Constant
Bit rate : 3 467 kb/s / 1 509 kb/s
Channel(s) : 6 channels
Channel positions : Front: L C R, Side: L R, LFE
Sampling rate : 48.0 kHz
Frame rate : 93.750 FPS (512 SPF)
Bit depth : 24 bits
Compression mode : Lossless / Lossy
Stream size : 1.37 GiB (14%)
Title : DTS-HD MA 5.1
Language : English
Default : Yes
Forced : No

Text #1
ID : 3
Format : PGS
Codec ID : S_HDMV/PGS
Codec ID/Info : Picture based subtitle format used on BDs/HD-DVDs
Duration : 44 min 25 s
Bit rate : 377 b/s
Count of elements : 22
Stream size : 123 KiB (0%)
Title : English (Forced only)
Language : English
Default : Yes
Forced : Yes

Text #2
ID : 4
Format : PGS
Codec ID : S_HDMV/PGS
Codec ID/Info : Picture based subtitle format used on BDs/HD-DVDs
Duration : 54 min 57 s
Bit rate : 23.4 kb/s
Count of elements : 914
Stream size : 9.21 MiB (0%)
Title : English (SDH)
Language : English
Default : No
Forced : No

Text #3
ID : 5
Format : PGS
Codec ID : S_HDMV/PGS
Codec ID/Info : Picture based subtitle format used on BDs/HD-DVDs
Duration : 52 min 16 s
Bit rate : 22.3 kb/s
Count of elements : 790
Stream size : 8.36 MiB (0%)
Title : Spanish (Latin American)
Language : Spanish
Default : No
Forced : No

Menu
00:00:00.000 : en:00:00:00.000
00:03:00.722 : en:00:03:00.722
00:05:59.734 : en:00:05:59.734
00:13:07.745 : en:00:13:07.745
00:20:08.499 : en:00:20:08.499
00:30:35.625 : en:00:30:35.625
00:37:54.772 : en:00:37:54.772
00:43:45.790 : en:00:43:45.790
00:51:04.270 : en:00:51:04.270
00:55:31.328 : en:00:55:31.328





The Young Pope S01E05


The Young Pope S01E05


The Young Pope S01E05


The Young Pope S01E05


The Young Pope S01E05

All episodes