Index
# A B C D E F G H I J K L M N O P Q R S T U V W X Y Z
Tags
Language
Tags
March 2024
Su Mo Tu We Th Fr Sa
25 26 27 28 29 1 2
3 4 5 6 7 8 9
10 11 12 13 14 15 16
17 18 19 20 21 22 23
24 25 26 27 28 29 30
31 1 2 3 4 5 6

Featured TV Shows


The Walking Dead: Dead City S01E01

Posted By: Tavaz
1080p (FullHD) / WEBRip IMDb
The Walking Dead: Dead City S01E01

The Walking Dead: Dead City S01E01
WEBRip | MKV | 1920x1080 | English / Français | H264 @ 7888 kbps | E-AC-3 @ 640.0 kbps | 47 min 44 s | 3.06 GiB
Subtitles: Français
Genre: Drama


Maggie and Negan travel to post-apocalyptic Manhattan - long ago cut off from the mainland. The crumbling city is filled with the dead and denizens who have made it a world full of anarchy, danger, beauty, and terror.

6892bcb0e6be4dff9884f90b394a6d9f.mkv (3.1 GB)



General
Unique ID : 113660854677768748155749463909501421637 (0x558248CB59496A012A787F9F4EDAC845)
Complete name : ./6892bcb0e6be4dff9884f90b394a6d9f.mkv
Format : Matroska
Format version : Version 4
File size : 3.06 GiB
Duration : 47 min 44 s
Overall bit rate : 9 171 kb/s
Writing application : mkvmerge v72.0.0 ('Minuano (Six-eight)') 64-bit
Writing library : libebml v1.4.4 + libmatroska v1.7.1

Video
ID : 1
Format : AVC
Format/Info : Advanced Video Codec
Format profile : High@L4
Format settings : CABAC / 4 Ref Frames
Format settings, CABAC : Yes
Format settings, Reference frames : 4 frames
Codec ID : V_MPEG4/ISO/AVC
Duration : 47 min 44 s
Bit rate mode : Constant
Bit rate : 7 889 kb/s
Nominal bit rate : 10 000 kb/s
Width : 1 920 pixels
Height : 1 080 pixels
Display aspect ratio : 16:9
Frame rate mode : Constant
Frame rate : 25.000 FPS
Color space : YUV
Chroma subsampling : 4:2:0
Bit depth : 8 bits
Scan type : Progressive
Bits/(Pixel*Frame) : 0.152
Stream size : 2.63 GiB (86%)
Default : Yes
Forced : No
Color range : Limited
Color primaries : BT.709
Transfer characteristics : BT.709
Matrix coefficients : BT.709

Audio #1
ID : 2
Format : E-AC-3
Format/Info : Enhanced AC-3
Commercial name : Dolby Digital Plus
Codec ID : A_EAC3
Duration : 47 min 44 s
Bit rate mode : Constant
Bit rate : 640 kb/s
Channel(s) : 6 channels
Channel layout : L R C LFE Ls Rs
Sampling rate : 48.0 kHz
Frame rate : 31.250 FPS (1536 SPF)
Compression mode : Lossy
Stream size : 219 MiB (7%)
Title : French
Language : French
Service kind : Complete Main
Default : Yes
Forced : No

Audio #2
ID : 3
Format : E-AC-3
Format/Info : Enhanced AC-3
Commercial name : Dolby Digital Plus
Codec ID : A_EAC3
Duration : 47 min 44 s
Bit rate mode : Constant
Bit rate : 640 kb/s
Channel(s) : 6 channels
Channel layout : L R C LFE Ls Rs
Sampling rate : 48.0 kHz
Frame rate : 31.250 FPS (1536 SPF)
Compression mode : Lossy
Stream size : 219 MiB (7%)
Title : English
Language : English
Service kind : Complete Main
Default : No
Forced : No

Text
ID : 4
Format : UTF-8
Codec ID : S_TEXT/UTF8
Codec ID/Info : UTF-8 Plain Text
Duration : 43 min 38 s
Bit rate : 35 b/s
Frame rate : 0.148 FPS
Count of elements : 387
Stream size : 11.2 KiB (0%)
Title : French
Language : French
Default : No
Forced : No





The Walking Dead: Dead City S01E01


The Walking Dead: Dead City S01E01


The Walking Dead: Dead City S01E01


The Walking Dead: Dead City S01E01


The Walking Dead: Dead City S01E01

All episodes