Index
# A B C D E F G H I J K L M N O P Q R S T U V W Y Z
Tags
Language
Tags
January 2023
Su Mo Tu We Th Fr Sa
1 2 3 4 5 6 7
8 9 10 11 12 13 14
15 16 17 18 19 20 21
22 23 24 25 26 27 28
29 30 31 1 2 3 4

Featured TV Shows


Game of Thrones S04E09

Posted By: Tavaz
1080p (FullHD) / BDRip IMDb
Game of Thrones S04E09

Game of Thrones S04E09
BluRay Remux | MKV | 1920x1080 | Čeština / Español / Français / Polski / English | H264 @ 17896 kbps | DTS | 50 min 34 s | 9.56 GiB
Subtitles: Français, Suomi, Español, Polski, Ελληνικά, Nederlands, Svenska, Dansk, English, Português, Čeština
Genre: Drama


Seven noble families fight for control of the mythical land of Westeros. Friction between the houses leads to full-scale war. All while a very ancient evil awakens in the farthest north. Amidst the war, a neglected military order of misfits, the Night's Watch, is all that stands between the realms of men and icy horrors beyond.

Game.of.Thrones.S04E09.1080p.BluRay.REMUX.AVC.DTS-HD.MA.5.1-FGT.part1.rar (5.0 GB)
Game.of.Thrones.S04E09.1080p.BluRay.REMUX.AVC.DTS-HD.MA.5.1-FGT.part2.rar (4.6 GB)



General
Unique ID : 93589678730256159571673919636753349276 (0x4668B76AEB7E5AFC3E34A3787D43FA9C)
Complete name : ./0437c4ea25e347a3abface9c92ffe0ef.mkv
Format : Matroska
Format version : Version 4 / Version 2
File size : 9.56 GiB
Duration : 50 min 34 s
Overall bit rate mode : Variable
Overall bit rate : 27.1 Mb/s
Movie name : Game.of.Thrones.S04E09
Encoded date : UTC 2022-10-13 10:45:57
Writing application : mkvmerge v71.1.0 ('Fortitude') 64-bit
Writing library : libebml v1.4.4 + libmatroska v1.7.1

Video
ID : 1
ID in the original source medium : 4113 (0x1011)
Format : AVC
Format/Info : Advanced Video Codec
Format profile : High@L4.1
Format settings : CABAC / 4 Ref Frames
Format settings, CABAC : Yes
Format settings, RefFrames : 4 frames
Codec ID : V_MPEG4/ISO/AVC
Duration : 50 min 34 s
Bit rate mode : Variable
Bit rate : 17.9 Mb/s
Maximum bit rate : 31.0 Mb/s
Width : 1 920 pixels
Height : 1 080 pixels
Display aspect ratio : 16:9
Frame rate mode : Constant
Frame rate : 23.976 (24000/1001) FPS
Color space : YUV
Chroma subsampling : 4:2:0
Bit depth : 8 bits
Scan type : Progressive
Bits/(Pixel*Frame) : 0.360
Stream size : 6.32 GiB (66%)
Language : English
Default : No
Forced : No
Original source medium : Blu-ray

Audio #1
ID : 2
ID in the original source medium : 4352 (0x1100)
Format : DTS
Format/Info : Digital Theater Systems
Format profile : MA / Core
Mode : 16
Format settings, Endianness : Big
Codec ID : A_DTS
Duration : 50 min 34 s
Bit rate mode : Variable / Constant
Bit rate : 3 695 kb/s / 1 509 kb/s
Channel(s) : 6 channels
Channel positions : Front: L C R, Side: L R, LFE
Sampling rate : 48.0 kHz
Frame rate : 93.750 FPS (512 SPF)
Bit depth : 24 bits
Compression mode : Lossless / Lossy
Stream size : 1.31 GiB (14%)
Title : Surround 5.1
Language : English
Default : Yes
Forced : No
Original source medium : Blu-ray

Audio #2
ID : 3
ID in the original source medium : 4353 (0x1101)
Format : DTS
Format/Info : Digital Theater Systems
Mode : 16
Format settings, Endianness : Big
Codec ID : A_DTS
Duration : 50 min 34 s
Bit rate mode : Constant
Bit rate : 768 kb/s
Channel(s) : 6 channels
Channel positions : Front: L C R, Side: L R, LFE
Sampling rate : 48.0 kHz
Frame rate : 93.750 FPS (512 SPF)
Bit depth : 24 bits
Compression mode : Lossy
Stream size : 278 MiB (3%)
Title : Surround 5.1
Language : French
Default : No
Forced : No
Original source medium : Blu-ray

Audio #3
ID : 4
ID in the original source medium : 4354 (0x1102)
Format : DTS
Format/Info : Digital Theater Systems
Mode : 16
Format settings, Endianness : Big
Codec ID : A_DTS
Duration : 50 min 34 s
Bit rate mode : Constant
Bit rate : 768 kb/s
Channel(s) : 2 channels
Channel positions : Front: L R
Sampling rate : 48.0 kHz
Frame rate : 93.750 FPS (512 SPF)
Bit depth : 24 bits
Compression mode : Lossy
Stream size : 278 MiB (3%)
Title : Stereo
Language : Spanish
Default : No
Forced : No
Original source medium : Blu-ray

Audio #4
ID : 5
ID in the original source medium : 4355 (0x1103)
Format : DTS
Format/Info : Digital Theater Systems
Mode : 16
Format settings, Endianness : Big
Codec ID : A_DTS
Duration : 50 min 34 s
Bit rate mode : Constant
Bit rate : 768 kb/s
Channel(s) : 6 channels
Channel positions : Front: L C R, Side: L R, LFE
Sampling rate : 48.0 kHz
Frame rate : 93.750 FPS (512 SPF)
Bit depth : 24 bits
Compression mode : Lossy
Stream size : 278 MiB (3%)
Title : Surround 5.1
Language : Spanish
Default : No
Forced : No
Original source medium : Blu-ray

Audio #5
ID : 6
ID in the original source medium : 4356 (0x1104)
Format : DTS
Format/Info : Digital Theater Systems
Mode : 16
Format settings, Endianness : Big
Codec ID : A_DTS
Duration : 50 min 34 s
Bit rate mode : Constant
Bit rate : 768 kb/s
Channel(s) : 2 channels
Channel positions : Front: L R
Sampling rate : 48.0 kHz
Frame rate : 93.750 FPS (512 SPF)
Bit depth : 24 bits
Compression mode : Lossy
Stream size : 278 MiB (3%)
Title : Stereo
Language : Czech
Default : No
Forced : No
Original source medium : Blu-ray

Audio #6
ID : 7
ID in the original source medium : 4357 (0x1105)
Format : DTS
Format/Info : Digital Theater Systems
Mode : 16
Format settings, Endianness : Big
Codec ID : A_DTS
Duration : 50 min 34 s
Bit rate mode : Constant
Bit rate : 768 kb/s
Channel(s) : 2 channels
Channel positions : Front: L R
Sampling rate : 48.0 kHz
Frame rate : 93.750 FPS (512 SPF)
Bit depth : 24 bits
Compression mode : Lossy
Stream size : 278 MiB (3%)
Title : Stereo
Language : Polish
Default : No
Forced : No
Original source medium : Blu-ray

Audio #7
ID : 8
ID in the original source medium : 4358 (0x1106)
Format : DTS
Format/Info : Digital Theater Systems
Mode : 16
Format settings, Endianness : Big
Codec ID : A_DTS
Duration : 50 min 34 s
Bit rate mode : Constant
Bit rate : 768 kb/s
Channel(s) : 6 channels
Channel positions : Front: L C R, Side: L R, LFE
Sampling rate : 48.0 kHz
Frame rate : 93.750 FPS (512 SPF)
Bit depth : 24 bits
Compression mode : Lossy
Stream size : 278 MiB (3%)
Title : Surround 5.1
Language : English
Default : No
Forced : No
Original source medium : Blu-ray

Audio #8
ID : 9
ID in the original source medium : 4359 (0x1107)
Format : DTS
Format/Info : Digital Theater Systems
Mode : 16
Format settings, Endianness : Big
Codec ID : A_DTS
Duration : 50 min 34 s
Bit rate mode : Constant
Bit rate : 768 kb/s
Channel(s) : 6 channels
Channel positions : Front: L C R, Side: L R, LFE
Sampling rate : 48.0 kHz
Frame rate : 93.750 FPS (512 SPF)
Bit depth : 24 bits
Compression mode : Lossy
Stream size : 278 MiB (3%)
Title : Surround 5.1
Language : English
Default : No
Forced : No
Original source medium : Blu-ray

Text #1
ID : 10
Format : UTF-8
Codec ID : S_TEXT/UTF8
Codec ID/Info : UTF-8 Plain Text
Duration : 46 min 23 s
Bit rate : 40 b/s
Count of elements : 447
Stream size : 13.9 KiB (0%)
Title : English
Language : English
Default : Yes
Forced : No

Text #2
ID : 11
Format : UTF-8
Codec ID : S_TEXT/UTF8
Codec ID/Info : UTF-8 Plain Text
Duration : 46 min 53 s
Bit rate : 43 b/s
Count of elements : 534
Stream size : 15.1 KiB (0%)
Title : English SDH
Language : English
Default : No
Forced : No

Text #3
ID : 12
ID in the original source medium : 4608 (0x1200)
Format : PGS
Muxing mode : zlib
Codec ID : S_HDMV/PGS
Codec ID/Info : Picture based subtitle format used on BDs/HD-DVDs
Duration : 46 min 53 s
Bit rate : 29.1 kb/s
Count of elements : 1076
Stream size : 9.76 MiB (0%)
Language : English
Default : No
Forced : No
Original source medium : Blu-ray

Text #4
ID : 13
ID in the original source medium : 4609 (0x1201)
Format : PGS
Muxing mode : zlib
Codec ID : S_HDMV/PGS
Codec ID/Info : Picture based subtitle format used on BDs/HD-DVDs
Duration : 48 min 2 s
Bit rate : 21.3 kb/s
Count of elements : 934
Stream size : 7.31 MiB (0%)
Language : French
Default : No
Forced : No
Original source medium : Blu-ray

Text #5
ID : 14
ID in the original source medium : 4610 (0x1202)
Format : PGS
Muxing mode : zlib
Codec ID : S_HDMV/PGS
Codec ID/Info : Picture based subtitle format used on BDs/HD-DVDs
Duration : 46 min 23 s
Bit rate : 25.2 kb/s
Count of elements : 966
Stream size : 8.37 MiB (0%)
Language : Spanish
Default : No
Forced : No
Original source medium : Blu-ray

Text #6
ID : 15
ID in the original source medium : 4611 (0x1203)
Format : PGS
Muxing mode : zlib
Codec ID : S_HDMV/PGS
Codec ID/Info : Picture based subtitle format used on BDs/HD-DVDs
Duration : 46 min 23 s
Bit rate : 26.3 kb/s
Count of elements : 824
Stream size : 8.73 MiB (0%)
Language : Spanish
Default : No
Forced : No
Original source medium : Blu-ray

Text #7
ID : 16
ID in the original source medium : 4612 (0x1204)
Format : PGS
Muxing mode : zlib
Codec ID : S_HDMV/PGS
Codec ID/Info : Picture based subtitle format used on BDs/HD-DVDs
Duration : 47 min 6 s
Bit rate : 23.1 kb/s
Count of elements : 754
Stream size : 7.80 MiB (0%)
Language : Czech
Default : No
Forced : No
Original source medium : Blu-ray

Text #8
ID : 17
ID in the original source medium : 4613 (0x1205)
Format : PGS
Muxing mode : zlib
Codec ID : S_HDMV/PGS
Codec ID/Info : Picture based subtitle format used on BDs/HD-DVDs
Duration : 50 min 13 s
Bit rate : 18.1 kb/s
Count of elements : 712
Stream size : 6.51 MiB (0%)
Language : Polish
Default : No
Forced : No
Original source medium : Blu-ray

Text #9
ID : 18
ID in the original source medium : 4614 (0x1206)
Format : PGS
Muxing mode : zlib
Codec ID : S_HDMV/PGS
Codec ID/Info : Picture based subtitle format used on BDs/HD-DVDs
Duration : 46 min 23 s
Bit rate : 26.4 kb/s
Count of elements : 872
Stream size : 8.75 MiB (0%)
Language : Portuguese
Default : No
Forced : No
Original source medium : Blu-ray

Text #10
ID : 19
ID in the original source medium : 4615 (0x1207)
Format : PGS
Muxing mode : zlib
Codec ID : S_HDMV/PGS
Codec ID/Info : Picture based subtitle format used on BDs/HD-DVDs
Duration : 46 min 23 s
Bit rate : 25.3 kb/s
Count of elements : 894
Stream size : 8.40 MiB (0%)
Language : Dutch
Default : No
Forced : No
Original source medium : Blu-ray

Text #11
ID : 20
ID in the original source medium : 4616 (0x1208)
Format : PGS
Muxing mode : zlib
Codec ID : S_HDMV/PGS
Codec ID/Info : Picture based subtitle format used on BDs/HD-DVDs
Duration : 46 min 23 s
Bit rate : 24.5 kb/s
Count of elements : 896
Stream size : 8.13 MiB (0%)
Language : Danish
Default : No
Forced : No
Original source medium : Blu-ray

Text #12
ID : 21
ID in the original source medium : 4617 (0x1209)
Format : PGS
Muxing mode : zlib
Codec ID : S_HDMV/PGS
Codec ID/Info : Picture based subtitle format used on BDs/HD-DVDs
Duration : 46 min 23 s
Bit rate : 23.2 kb/s
Count of elements : 894
Stream size : 7.70 MiB (0%)
Language : Finnish
Default : No
Forced : No
Original source medium : Blu-ray

Text #13
ID : 22
ID in the original source medium : 4618 (0x120A)
Format : PGS
Muxing mode : zlib
Codec ID : S_HDMV/PGS
Codec ID/Info : Picture based subtitle format used on BDs/HD-DVDs
Duration : 46 min 23 s
Bit rate : 23.8 kb/s
Count of elements : 896
Stream size : 7.90 MiB (0%)
Language : Norwegian
Default : No
Forced : No
Original source medium : Blu-ray

Text #14
ID : 23
ID in the original source medium : 4619 (0x120B)
Format : PGS
Muxing mode : zlib
Codec ID : S_HDMV/PGS
Codec ID/Info : Picture based subtitle format used on BDs/HD-DVDs
Duration : 46 min 23 s
Bit rate : 24.4 kb/s
Count of elements : 896
Stream size : 8.09 MiB (0%)
Language : Swedish
Default : No
Forced : No
Original source medium : Blu-ray

Text #15
ID : 24
ID in the original source medium : 4620 (0x120C)
Format : PGS
Muxing mode : zlib
Codec ID : S_HDMV/PGS
Codec ID/Info : Picture based subtitle format used on BDs/HD-DVDs
Duration : 48 min 3 s
Bit rate : 28.3 kb/s
Count of elements : 910
Stream size : 9.72 MiB (0%)
Language : Greek
Default : No
Forced : No
Original source medium : Blu-ray

Menu
00:00:00.000 : en:Chapter 01
00:01:54.614 : en:Chapter 02
00:07:54.974 : en:Chapter 03
00:13:29.099 : en:Chapter 04
00:25:05.837 : en:Chapter 05
00:32:30.907 : en:Chapter 06
00:39:49.220 : en:Chapter 07
00:49:14.785 : en:Chapter 08





Game of Thrones S04E09


Game of Thrones S04E09


Game of Thrones S04E09


Game of Thrones S04E09


Game of Thrones S04E09

All episodes