Tags
Language
Tags

VA - London Is The Place For Me 7 & 8 (2019/2020)

Posted By: delpotro
VA - London Is The Place For Me 7 & 8 (2019/2020)

VA - London Is The Place For Me 7 (Calypso, Palm​-​Wine, Mento, Joropo, Steel & Stringband) & 8 (Lord Kitchener In England, 1948​-​1962) (2019/2020)
XLD Rip | FLAC (tracks+log+.cue) - 453 Mb | MP3 CBR 320 kbps - 291 Mb | 02:06:44
Highlife, Jazz, Calypso | Label: Honest Jon's Records

The latest volumes in this highly acclaimed "London Is The Place For Me" series - Volume 7 - Calypso, Palm-Wine, Mento, Joropo, Steel & Stringband & Volume 8 - Lord Kitchener In England 1948-1962. Presenting the music of the Windrush generation: the post-war, London recordings of West Indians and West Africans, in the first wave of modern migration to Britain. Volume 7 - Calypso, Palm-Wine, Mento, Joropo, Steel & Stringband overflows with diverse musical styles, including steel band, stringband, calypso, joropo and mento. Volume 8 - Lord Kitchener In England 1948-1962 is devoted to the great calypsonian Lord Kitchener.

Still deeper forays into the musical landscape of the Windrush generation.

A dazzling range of calypso, mento, joropo, steelband, palm-wine and r’n'b. Expert revivals of stringband music, from way back, alongside proto-Afro-funk.
An uproarious selection of songs about the H-Bomb and modern phones, prostitution and Haile Selassie, mid-life crisis and the London Underground, racism and solidarity, the Highway Code and a 100% West Indian Royal Wedding.

For example some frantic British-Guianan joropo music-hall about Eatwell Brown from Clapham, who starts out biting off a piece of his mother-in-law’s face at a party, then devours everything in his path… a chunk of Brixton Prison, a Union Jack, a policeman’s uniform. Or Marie Bryant — collaborator of Lester Young and Duke Ellington — taking time off from skewering the South African PM Daniel Malan at her West End revue, to contribute some arch, swinging filth about uber-genitalia.

The genius of Lord Kitchener has been the mainstay of our series.

In this volume devoted to his post-war London recordings, Kitch plays his many roles with signature aplomb and poised subtlety.

First there is the hooligan chantwell, up for anything in the hurly-burly of carnival proper; and then the casual reporter, firing off postcards to Trinidad about taxis, flashy booze, fast women and football in Manchester, with homesickness and grievance nestled just behind the optimism, pride and tentative senses of belonging.
There is the bearer of news from home, in detailed accounts of murders, tales of stupid local coppers, and reminiscences about food and particular mango trees; the political thinker, considering racism and Africa; and the diarist, with his vivid tales of infidelity, and disclosure of the break-up of his marriage, and his desire to get away.

One foot in the UK, the other in Trinidad; but the man himself somewhere in-between. Kitch In The Jungle, nobody around. A ‘diasporic explorer’; a key twentieth-century witness, alongside such hallowed figures as Samuel Selvon and Edward Kamau Braithwaite.

Though in frustration Kitch would sometimes take over double-bass duties himself, the musicianship of Rupert Nurse, Fitzroy Coleman and co is top-notch. The original glorious sound is down to Denys Preston, recording for Melodisc, often at Abbey Road Studios (where we transferred and restored the 78s compiled here).
Tracklist:
Disc 1
1. Lord Beginner – Sons And Daughters Of Africa
2. The Lion – Royal Wedding
3. The Mighty Terror – The Hydrogen Bomb
4. Dai Dai Simba – Modern Telephone
5. Willie Payne & The Starlite Tempos – Wa Sise
6. The Mighty Terror – The Emperor Of Africa
7. Louise Bennett – Bongo Man
8. Marie Bryant – My Handy Man
9. Nigerian Union Rhythm Group – Tortoise Mambo
10. Calypso Rhythm Kings – Boul Ve Se
11. The Mighty Terror – Life Is Like A Puzzle
12. The Mighty Terror – Chinese Children
13. Bill Rogers – Hungry Man From Clapham
14. Lili Verona – Underground Train
15. The Lion – Highway Code
16. Billy Sholanke – Kana Kana
17. Calypso Rhythm Kings – L'Année Passée
18. Lord Beginner & Lady Beginner – One Morning
19. West African Rhythm Brothers – Ema Foju Ana Woku
20. Trinidad Steel Band – Caroline

Disc 2
1. Lord Kitchener – Carnival Road March
2. Lord Kitchener – No More Taxi
3. Lord Kitchener – Mango Tree
4. Lord Kitchener – Food From The West Indies
5. Lord Kitchener – Alphonso In Town
6. Lord Kitchener – Come Back In The Morning
7. Lord Kitchener – Too Late Kitch
8. Lord Kitchener – Drink-A-Rum
9. Lord Kitchener – Constable Joe
10. Lord Kitchener – Pirates Of Paria
11. Lord Kitchener – Carnival In Town
12. Lord Kitchener – Is Trouble
13. Lord Kitchener – If You Brown
14. Lord Kitchener – Life Begins At Forty
15. Lord Kitchener – Manchester Football Double
16. Lord Kitchener – The Denis Compton Calypso
17. Lord Kitchener – Mistress Jacob
18. Lord Kitchener – London Is The Place For Me
19. Lord Kitchener – Tie Tongue Mopsie
20. Lord Kitchener – Dora (Meet Me At The Pawnshop)
21. Lord Kitchener – If You're Not White You're Black
22. Lord Kitchener – Africa My Home
23. Lord Kitchener – Nora
24. Lord Kitchener – Kitch In The Jungle

X Lossless Decoder version 20211018 (154.0)

XLD extraction logfile from 2022-05-22 17:18:17 -0700

Various Artists / London Is The Place For Me 7: Calypso, Palm-Wine, Meno, Joropo, String Band

Used drive : HL-DT-ST BD-RE WP50NB40 (revision 1.00)
Media type : Pressed CD

Ripper mode : XLD Secure Ripper
Disable audio cache : OK for the drive with a cache less than 1375KiB
Make use of C2 pointers : NO
Read offset correction : 6
Max retry count : 20
Gap status : Analyzed, Appended (except HTOA)

TOC of the extracted CD
Track | Start | Length | Start sector | End sector
––––––––––––––––––––––––––––-
1 | 00:00:00 | 02:59:43 | 0 | 13467
2 | 02:59:43 | 02:59:32 | 13468 | 26924
3 | 05:59:00 | 03:09:71 | 26925 | 41170
4 | 09:08:71 | 02:30:49 | 41171 | 52469
5 | 11:39:45 | 02:40:32 | 52470 | 64501
6 | 14:20:02 | 02:38:09 | 64502 | 76360
7 | 16:58:11 | 02:26:31 | 76361 | 87341
8 | 19:24:42 | 02:39:68 | 87342 | 99334
9 | 22:04:35 | 02:32:02 | 99335 | 110736
10 | 24:36:37 | 02:19:11 | 110737 | 121172
11 | 26:55:48 | 02:51:23 | 121173 | 134020
12 | 29:46:71 | 02:39:54 | 134021 | 145999
13 | 32:26:50 | 02:18:21 | 146000 | 156370
14 | 34:44:71 | 03:10:47 | 156371 | 170667
15 | 37:55:43 | 03:10:16 | 170668 | 184933
16 | 41:05:59 | 03:11:60 | 184934 | 199318
17 | 44:17:44 | 03:15:58 | 199319 | 214001
18 | 47:33:27 | 03:07:70 | 214002 | 228096
19 | 50:41:22 | 02:35:64 | 228097 | 239785
20 | 53:17:11 | 02:11:34 | 239786 | 249644

AccurateRip Summary (DiscID: 0027ec07-0248a8fe-260d0014)
Track 01 : OK (v2, confidence 2/2)
Track 02 : OK (v2, confidence 2/2)
Track 03 : OK (v2, confidence 2/2)
Track 04 : OK (v2, confidence 2/2)
Track 05 : OK (v2, confidence 2/2)
Track 06 : OK (v2, confidence 2/2)
Track 07 : OK (v2, confidence 2/2)
Track 08 : OK (v2, confidence 2/2)
Track 09 : OK (v2, confidence 2/2)
Track 10 : OK (v2, confidence 2/2)
Track 11 : OK (v2, confidence 2/2)
Track 12 : OK (v2, confidence 2/2)
Track 13 : OK (v2, confidence 2/2)
Track 14 : OK (v2, confidence 2/2)
Track 15 : OK (v2, confidence 2/2)
Track 16 : OK (v2, confidence 2/2)
Track 17 : OK (v2, confidence 2/2)
Track 18 : OK (v2, confidence 2/2)
Track 19 : OK (v2, confidence 2/2)
Track 20 : OK (v2, confidence 2/2)
->All tracks accurately ripped.

All Tracks
Album gain : 0.52 dB
Peak : 0.914307
Statistics
Read error : 0
Jitter error (maybe fixed) : 0
Retry sector count : 0
Damaged sector count : 0

Track 01
Filename : /Users/Music Files/Compilations - London Is The Place For Me 7- Calypso, Palm-Wine, Meno, Joropo, String Band (2020) [FLAC]/01 Sons and Daughters of Africa.flac
Pre-gap length : 00:02:00

Track gain : -0.12 dB
Peak : 0.719543
CRC32 hash (test run) : E3657F84
CRC32 hash : E3657F84
CRC32 hash (skip zero) : 951221B9
AccurateRip v1 signature : 6E55DB4A
AccurateRip v2 signature : B4CB5A0A
->Accurately ripped (v2, confidence 2/2)
Statistics
Read error : 0
Jitter error (maybe fixed) : 0
Retry sector count : 0
Damaged sector count : 0

Track 02
Filename : /Users/Music Files/Compilations - London Is The Place For Me 7- Calypso, Palm-Wine, Meno, Joropo, String Band (2020) [FLAC]/02 Royal Wedding.flac

Track gain : 0.33 dB
Peak : 0.737335
CRC32 hash (test run) : D6D6BBC3
CRC32 hash : D6D6BBC3
CRC32 hash (skip zero) : 4B72F43A
AccurateRip v1 signature : 29A403D2
AccurateRip v2 signature : 11A61961
->Accurately ripped (v2, confidence 2/2)
Statistics
Read error : 0
Jitter error (maybe fixed) : 0
Retry sector count : 0
Damaged sector count : 0

Track 03
Filename : /Users/Music Files/Compilations - London Is The Place For Me 7- Calypso, Palm-Wine, Meno, Joropo, String Band (2020) [FLAC]/03 Hydrogen Bomb.flac

Track gain : -1.10 dB
Peak : 0.914307
CRC32 hash (test run) : 61B095DF
CRC32 hash : 61B095DF
CRC32 hash (skip zero) : B355F62E
AccurateRip v1 signature : 25898F46
AccurateRip v2 signature : FC950535
->Accurately ripped (v2, confidence 2/2)
Statistics
Read error : 0
Jitter error (maybe fixed) : 0
Retry sector count : 0
Damaged sector count : 0

Track 04
Filename : /Users/Music Files/Compilations - London Is The Place For Me 7- Calypso, Palm-Wine, Meno, Joropo, String Band (2020) [FLAC]/04 Modern Telephone.flac

Track gain : -2.90 dB
Peak : 0.724945
CRC32 hash (test run) : 5B2D3D72
CRC32 hash : 5B2D3D72
CRC32 hash (skip zero) : 50AEB9A9
AccurateRip v1 signature : 0C8BD450
AccurateRip v2 signature : 90FB004A
->Accurately ripped (v2, confidence 2/2)
Statistics
Read error : 0
Jitter error (maybe fixed) : 0
Retry sector count : 0
Damaged sector count : 0

Track 05
Filename : /Users/Music Files/Compilations - London Is The Place For Me 7- Calypso, Palm-Wine, Meno, Joropo, String Band (2020) [FLAC]/05 Wa Sise.flac

Track gain : 3.84 dB
Peak : 0.428070
CRC32 hash (test run) : 9F475B0C
CRC32 hash : 9F475B0C
CRC32 hash (skip zero) : 82CB09FA
AccurateRip v1 signature : 445D2408
AccurateRip v2 signature : C3592B1B
->Accurately ripped (v2, confidence 2/2)
Statistics
Read error : 0
Jitter error (maybe fixed) : 0
Retry sector count : 0
Damaged sector count : 0

Track 06
Filename : /Users/Music Files/Compilations - London Is The Place For Me 7- Calypso, Palm-Wine, Meno, Joropo, String Band (2020) [FLAC]/06 The Emperor of Africa.flac

Track gain : -1.19 dB
Peak : 0.633484
CRC32 hash (test run) : 68F8AA44
CRC32 hash : 68F8AA44
CRC32 hash (skip zero) : A07F0EB6
AccurateRip v1 signature : 934692F0
AccurateRip v2 signature : 4D1C1B78
->Accurately ripped (v2, confidence 2/2)
Statistics
Read error : 0
Jitter error (maybe fixed) : 0
Retry sector count : 0
Damaged sector count : 0

Track 07
Filename : /Users/Music Files/Compilations - London Is The Place For Me 7- Calypso, Palm-Wine, Meno, Joropo, String Band (2020) [FLAC]/07 Bongo Man.flac

Track gain : -0.80 dB
Peak : 0.891266
CRC32 hash (test run) : 1B98C7C3
CRC32 hash : 1B98C7C3
CRC32 hash (skip zero) : 5578CA1C
AccurateRip v1 signature : 325614A3
AccurateRip v2 signature : F82FB5B8
->Accurately ripped (v2, confidence 2/2)
Statistics
Read error : 0
Jitter error (maybe fixed) : 0
Retry sector count : 0
Damaged sector count : 0

Track 08
Filename : /Users/Music Files/Compilations - London Is The Place For Me 7- Calypso, Palm-Wine, Meno, Joropo, String Band (2020) [FLAC]/08 My Handy Man.flac

Track gain : 2.85 dB
Peak : 0.656342
CRC32 hash (test run) : F74EC5E1
CRC32 hash : F74EC5E1
CRC32 hash (skip zero) : 17FD8865
AccurateRip v1 signature : B6A0233D
AccurateRip v2 signature : EF5124A9
->Accurately ripped (v2, confidence 2/2)
Statistics
Read error : 0
Jitter error (maybe fixed) : 0
Retry sector count : 0
Damaged sector count : 0

Track 09
Filename : /Users/Music Files/Compilations - London Is The Place For Me 7- Calypso, Palm-Wine, Meno, Joropo, String Band (2020) [FLAC]/09 Tortoise Mambo.flac

Track gain : 0.89 dB
Peak : 0.677002
CRC32 hash (test run) : 85832AA6
CRC32 hash : 85832AA6
CRC32 hash (skip zero) : AC10C818
AccurateRip v1 signature : 884D0DAB
AccurateRip v2 signature : EE5E5B59
->Accurately ripped (v2, confidence 2/2)
Statistics
Read error : 0
Jitter error (maybe fixed) : 0
Retry sector count : 0
Damaged sector count : 0

Track 10
Filename : /Users/Music Files/Compilations - London Is The Place For Me 7- Calypso, Palm-Wine, Meno, Joropo, String Band (2020) [FLAC]/10 Boule Ve Se.flac

Track gain : 0.14 dB
Peak : 0.820709
CRC32 hash (test run) : FA76ABAC
CRC32 hash : FA76ABAC
CRC32 hash (skip zero) : BC3BE596
AccurateRip v1 signature : 7E856065
AccurateRip v2 signature : 6395C7EF
->Accurately ripped (v2, confidence 2/2)
Statistics
Read error : 0
Jitter error (maybe fixed) : 0
Retry sector count : 0
Damaged sector count : 0

Track 11
Filename : /Users/Music Files/Compilations - London Is The Place For Me 7- Calypso, Palm-Wine, Meno, Joropo, String Band (2020) [FLAC]/11 Life Is Like a Puzzle.flac

Track gain : 1.26 dB
Peak : 0.599548
CRC32 hash (test run) : CE24F0A8
CRC32 hash : CE24F0A8
CRC32 hash (skip zero) : B6D54D4C
AccurateRip v1 signature : 91D04FE3
AccurateRip v2 signature : 7835D35D
->Accurately ripped (v2, confidence 2/2)
Statistics
Read error : 0
Jitter error (maybe fixed) : 0
Retry sector count : 0
Damaged sector count : 0

Track 12
Filename : /Users/Music Files/Compilations - London Is The Place For Me 7- Calypso, Palm-Wine, Meno, Joropo, String Band (2020) [FLAC]/12 Chinese Children.flac

Track gain : -0.43 dB
Peak : 0.691498
CRC32 hash (test run) : 96373F7A
CRC32 hash : 96373F7A
CRC32 hash (skip zero) : ECF85EF8
AccurateRip v1 signature : F41F4649
AccurateRip v2 signature : BE161C75
->Accurately ripped (v2, confidence 2/2)
Statistics
Read error : 0
Jitter error (maybe fixed) : 0
Retry sector count : 0
Damaged sector count : 0

Track 13
Filename : /Users/Music Files/Compilations - London Is The Place For Me 7- Calypso, Palm-Wine, Meno, Joropo, String Band (2020) [FLAC]/13 Hungry Man from Clapham.flac

Track gain : -0.86 dB
Peak : 0.794342
CRC32 hash (test run) : FE0ADEB1
CRC32 hash : FE0ADEB1
CRC32 hash (skip zero) : F180C7A4
AccurateRip v1 signature : 4307107E
AccurateRip v2 signature : 29C6E0E8
->Accurately ripped (v2, confidence 2/2)
Statistics
Read error : 0
Jitter error (maybe fixed) : 0
Retry sector count : 0
Damaged sector count : 0

Track 14
Filename : /Users/Music Files/Compilations - London Is The Place For Me 7- Calypso, Palm-Wine, Meno, Joropo, String Band (2020) [FLAC]/14 Underground Train.flac

Track gain : 2.36 dB
Peak : 0.640106
CRC32 hash (test run) : 0BF2DF18
CRC32 hash : 0BF2DF18
CRC32 hash (skip zero) : 4F89B9BE
AccurateRip v1 signature : A6E02470
AccurateRip v2 signature : 5A430870
->Accurately ripped (v2, confidence 2/2)
Statistics
Read error : 0
Jitter error (maybe fixed) : 0
Retry sector count : 0
Damaged sector count : 0

Track 15
Filename : /Users/Music Files/Compilations - London Is The Place For Me 7- Calypso, Palm-Wine, Meno, Joropo, String Band (2020) [FLAC]/15 Highway Code.flac

Track gain : 2.10 dB
Peak : 0.687500
CRC32 hash (test run) : A25AE34A
CRC32 hash : A25AE34A
CRC32 hash (skip zero) : 44DE62A1
AccurateRip v1 signature : FD525A75
AccurateRip v2 signature : 3A164B0A
->Accurately ripped (v2, confidence 2/2)
Statistics
Read error : 0
Jitter error (maybe fixed) : 0
Retry sector count : 0
Damaged sector count : 0

Track 16
Filename : /Users/Music Files/Compilations - London Is The Place For Me 7- Calypso, Palm-Wine, Meno, Joropo, String Band (2020) [FLAC]/16 Kana Kana.flac

Track gain : 1.70 dB
Peak : 0.471039
CRC32 hash (test run) : 73D8C59D
CRC32 hash : 73D8C59D
CRC32 hash (skip zero) : 8AF88B90
AccurateRip v1 signature : 2658DDE7
AccurateRip v2 signature : FE028EBE
->Accurately ripped (v2, confidence 2/2)
Statistics
Read error : 0
Jitter error (maybe fixed) : 0
Retry sector count : 0
Damaged sector count : 0

Track 17
Filename : /Users/Music Files/Compilations - London Is The Place For Me 7- Calypso, Palm-Wine, Meno, Joropo, String Band (2020) [FLAC]/17 L'année Passée.flac

Track gain : 7.81 dB
Peak : 0.305084
CRC32 hash (test run) : 81D698CE
CRC32 hash : 81D698CE
CRC32 hash (skip zero) : 0D502FA4
AccurateRip v1 signature : D70FACB5
AccurateRip v2 signature : A1DCD37B
->Accurately ripped (v2, confidence 2/2)
Statistics
Read error : 0
Jitter error (maybe fixed) : 0
Retry sector count : 0
Damaged sector count : 0

Track 18
Filename : /Users/Music Files/Compilations - London Is The Place For Me 7- Calypso, Palm-Wine, Meno, Joropo, String Band (2020) [FLAC]/18 One Morning.flac

Track gain : 3.20 dB
Peak : 0.445282
CRC32 hash (test run) : C2BC696E
CRC32 hash : C2BC696E
CRC32 hash (skip zero) : 4FCF9B78
AccurateRip v1 signature : 20A1C6AD
AccurateRip v2 signature : 9AC1329A
->Accurately ripped (v2, confidence 2/2)
Statistics
Read error : 0
Jitter error (maybe fixed) : 0
Retry sector count : 0
Damaged sector count : 0

Track 19
Filename : /Users/Music Files/Compilations - London Is The Place For Me 7- Calypso, Palm-Wine, Meno, Joropo, String Band (2020) [FLAC]/19 Ema Foju Ana Woku.flac

Track gain : 1.27 dB
Peak : 0.651764
CRC32 hash (test run) : 9C0DDDEE
CRC32 hash : 9C0DDDEE
CRC32 hash (skip zero) : D8DF1450
AccurateRip v1 signature : 777A72AE
AccurateRip v2 signature : 6BB74B79
->Accurately ripped (v2, confidence 2/2)
Statistics
Read error : 0
Jitter error (maybe fixed) : 0
Retry sector count : 0
Damaged sector count : 0

Track 20
Filename : /Users/Music Files/Compilations - London Is The Place For Me 7- Calypso, Palm-Wine, Meno, Joropo, String Band (2020) [FLAC]/20 Caroline.flac

Track gain : -0.36 dB
Peak : 0.713501
CRC32 hash (test run) : 7E9A9279
CRC32 hash : 7E9A9279
CRC32 hash (skip zero) : 34F2103B
AccurateRip v1 signature : 07A37336
AccurateRip v2 signature : 733D0E47
->Accurately ripped (v2, confidence 2/2)
Statistics
Read error : 0
Jitter error (maybe fixed) : 0
Retry sector count : 0
Damaged sector count : 0

No errors occurred

End of status report

––-BEGIN XLD SIGNATURE––-
h0OMTFwp1mjxQvUjDi8kvn_oX3XcqxD.a5RtoLP8Itf0UNa.nIjEU_x_CDAKNmuZqDGRZ3LpM2eJ6eaCo.bcDZQr.b909mSRVdaOg7C
––-END XLD SIGNATURE––-
X Lossless Decoder version 20211018 (154.0)

XLD extraction logfile from 2022-05-22 17:54:13 -0700

Lord Kitchener / London Is The Place For Me 8: Lord Kitchener In England, 1948-1962

Used drive : HL-DT-ST BD-RE WP50NB40 (revision 1.00)
Media type : Pressed CD

Ripper mode : XLD Secure Ripper
Disable audio cache : OK for the drive with a cache less than 1375KiB
Make use of C2 pointers : NO
Read offset correction : 6
Max retry count : 20
Gap status : Analyzed, Appended (except HTOA)

TOC of the extracted CD
Track | Start | Length | Start sector | End sector
––––––––––––––––––––––––––––-
1 | 00:00:00 | 02:56:61 | 0 | 13260
2 | 02:56:61 | 02:35:72 | 13261 | 24957
3 | 05:32:58 | 02:48:22 | 24958 | 37579
4 | 08:21:05 | 02:44:42 | 37580 | 49921
5 | 11:05:47 | 03:21:03 | 49922 | 64999
6 | 14:26:50 | 02:38:48 | 65000 | 76897
7 | 17:05:23 | 03:05:05 | 76898 | 90777
8 | 20:10:28 | 02:45:15 | 90778 | 103167
9 | 22:55:43 | 03:07:40 | 103168 | 117232
10 | 26:03:08 | 02:38:57 | 117233 | 129139
11 | 28:41:65 | 02:50:62 | 129140 | 141951
12 | 31:32:52 | 03:33:72 | 141952 | 157998
13 | 35:06:49 | 03:11:53 | 157999 | 172376
14 | 38:18:27 | 03:10:01 | 172377 | 186627
15 | 41:28:28 | 03:13:38 | 186628 | 201140
16 | 44:41:66 | 03:07:17 | 201141 | 215182
17 | 47:49:08 | 02:47:70 | 215183 | 227777
18 | 50:37:03 | 02:47:50 | 227778 | 240352
19 | 53:24:53 | 03:05:49 | 240353 | 254276
20 | 56:30:27 | 02:47:24 | 254277 | 266825
21 | 59:17:51 | 02:53:39 | 266826 | 279839
22 | 62:11:15 | 02:43:58 | 279840 | 292122
23 | 64:54:73 | 02:57:65 | 292123 | 305462
24 | 67:52:63 | 03:23:20 | 305463 | 320707

AccurateRip Summary (DiscID: 003c961a-041e6f35-6210b418)
Track 01 : OK (v2, confidence 2/2)
Track 02 : OK (v2, confidence 2/2)
Track 03 : OK (v2, confidence 2/2)
Track 04 : OK (v2, confidence 2/2)
Track 05 : OK (v2, confidence 2/2)
Track 06 : OK (v2, confidence 2/2)
Track 07 : OK (v2, confidence 2/2)
Track 08 : OK (v2, confidence 2/2)
Track 09 : OK (v2, confidence 2/2)
Track 10 : OK (v2, confidence 2/2)
Track 11 : OK (v2, confidence 2/2)
Track 12 : OK (v2, confidence 2/2)
Track 13 : OK (v2, confidence 2/2)
Track 14 : OK (v2, confidence 2/2)
Track 15 : OK (v2, confidence 2/2)
Track 16 : OK (v2, confidence 2/2)
Track 17 : OK (v2, confidence 2/2)
Track 18 : OK (v2, confidence 2/2)
Track 19 : OK (v2, confidence 2/2)
Track 20 : OK (v2, confidence 2/2)
Track 21 : OK (v2, confidence 2/2)
Track 22 : OK (v2, confidence 2/2)
Track 23 : OK (v2, confidence 2/2)
Track 24 : OK (v2, confidence 2/2)
->All tracks accurately ripped.

All Tracks
Album gain : -0.77 dB
Peak : 0.977203
Statistics
Read error : 0
Jitter error (maybe fixed) : 0
Retry sector count : 0
Damaged sector count : 0

Track 01
Filename : /Users/Music Files/Lord Kitchener - London Is The Place For Me 8- Lord Kitchener In England, 1948-1962 (2020) [FLAC]/01 Carnival Road March.flac
Pre-gap length : 00:02:00

Track gain : 0.37 dB
Peak : 0.575134
CRC32 hash (test run) : 37E3A67C
CRC32 hash : 37E3A67C
CRC32 hash (skip zero) : DA302D0E
AccurateRip v1 signature : 8D9D48BB
AccurateRip v2 signature : D7201F8D
->Accurately ripped (v2, confidence 2/2)
Statistics
Read error : 0
Jitter error (maybe fixed) : 0
Retry sector count : 0
Damaged sector count : 0

Track 02
Filename : /Users/Music Files/Lord Kitchener - London Is The Place For Me 8- Lord Kitchener In England, 1948-1962 (2020) [FLAC]/02 No More Taxi.flac

Track gain : 0.48 dB
Peak : 0.778717
CRC32 hash (test run) : DC5574D6
CRC32 hash : DC5574D6
CRC32 hash (skip zero) : 496C1847
AccurateRip v1 signature : EE4F9A77
AccurateRip v2 signature : 5C80DCE0
->Accurately ripped (v2, confidence 2/2)
Statistics
Read error : 0
Jitter error (maybe fixed) : 0
Retry sector count : 0
Damaged sector count : 0

Track 03
Filename : /Users/Music Files/Lord Kitchener - London Is The Place For Me 8- Lord Kitchener In England, 1948-1962 (2020) [FLAC]/03 Mango Tree.flac

Track gain : -0.08 dB
Peak : 0.701813
CRC32 hash (test run) : 6F0666CB
CRC32 hash : 6F0666CB
CRC32 hash (skip zero) : 1F9F2987
AccurateRip v1 signature : FEF69BC7
AccurateRip v2 signature : 0733118C
->Accurately ripped (v2, confidence 2/2)
Statistics
Read error : 0
Jitter error (maybe fixed) : 0
Retry sector count : 0
Damaged sector count : 0

Track 04
Filename : /Users/Music Files/Lord Kitchener - London Is The Place For Me 8- Lord Kitchener In England, 1948-1962 (2020) [FLAC]/04 Food from the West Indies.flac

Track gain : 0.20 dB
Peak : 0.977203
CRC32 hash (test run) : B11BA8D9
CRC32 hash : B11BA8D9
CRC32 hash (skip zero) : 617D7794
AccurateRip v1 signature : F4B443DE
AccurateRip v2 signature : B6542B9B
->Accurately ripped (v2, confidence 2/2)
Statistics
Read error : 0
Jitter error (maybe fixed) : 0
Retry sector count : 0
Damaged sector count : 0

Track 05
Filename : /Users/Music Files/Lord Kitchener - London Is The Place For Me 8- Lord Kitchener In England, 1948-1962 (2020) [FLAC]/05 Alphonso in Town.flac

Track gain : -4.70 dB
Peak : 0.660431
CRC32 hash (test run) : 4DEFE74B
CRC32 hash : 4DEFE74B
CRC32 hash (skip zero) : 04524740
AccurateRip v1 signature : 79511293
AccurateRip v2 signature : B8BD7BBB
->Accurately ripped (v2, confidence 2/2)
Statistics
Read error : 0
Jitter error (maybe fixed) : 0
Retry sector count : 0
Damaged sector count : 0

Track 06
Filename : /Users/Music Files/Lord Kitchener - London Is The Place For Me 8- Lord Kitchener In England, 1948-1962 (2020) [FLAC]/06 Come Back in the Morning.flac

Track gain : -0.51 dB
Peak : 0.730743
CRC32 hash (test run) : 372224A2
CRC32 hash : 372224A2
CRC32 hash (skip zero) : E65D4435
AccurateRip v1 signature : 29060083
AccurateRip v2 signature : 2CCAAFE1
->Accurately ripped (v2, confidence 2/2)
Statistics
Read error : 0
Jitter error (maybe fixed) : 0
Retry sector count : 0
Damaged sector count : 0

Track 07
Filename : /Users/Music Files/Lord Kitchener - London Is The Place For Me 8- Lord Kitchener In England, 1948-1962 (2020) [FLAC]/07 Too Late Kitch.flac

Track gain : 0.54 dB
Peak : 0.769226
CRC32 hash (test run) : DC0ED2B1
CRC32 hash : DC0ED2B1
CRC32 hash (skip zero) : 55846548
AccurateRip v1 signature : CCFF81BA
AccurateRip v2 signature : 074509FB
->Accurately ripped (v2, confidence 2/2)
Statistics
Read error : 0
Jitter error (maybe fixed) : 0
Retry sector count : 0
Damaged sector count : 0

Track 08
Filename : /Users/Music Files/Lord Kitchener - London Is The Place For Me 8- Lord Kitchener In England, 1948-1962 (2020) [FLAC]/08 Drink-A-Rum.flac

Track gain : 1.61 dB
Peak : 0.618378
CRC32 hash (test run) : E324020D
CRC32 hash : E324020D
CRC32 hash (skip zero) : FA53DFFE
AccurateRip v1 signature : BBD86707
AccurateRip v2 signature : C9213515
->Accurately ripped (v2, confidence 2/2)
Statistics
Read error : 0
Jitter error (maybe fixed) : 0
Retry sector count : 0
Damaged sector count : 0

Track 09
Filename : /Users/Music Files/Lord Kitchener - London Is The Place For Me 8- Lord Kitchener In England, 1948-1962 (2020) [FLAC]/09 Constable Joe.flac

Track gain : -0.52 dB
Peak : 0.548737
CRC32 hash (test run) : 964F0F46
CRC32 hash : 964F0F46
CRC32 hash (skip zero) : EED45369
AccurateRip v1 signature : 5E661224
AccurateRip v2 signature : 480B4EC1
->Accurately ripped (v2, confidence 2/2)
Statistics
Read error : 0
Jitter error (maybe fixed) : 0
Retry sector count : 0
Damaged sector count : 0

Track 10
Filename : /Users/Music Files/Lord Kitchener - London Is The Place For Me 8- Lord Kitchener In England, 1948-1962 (2020) [FLAC]/10 Pirates of Paria.flac

Track gain : -1.82 dB
Peak : 0.771088
CRC32 hash (test run) : A0AA0E37
CRC32 hash : A0AA0E37
CRC32 hash (skip zero) : 9AAACDA6
AccurateRip v1 signature : 4497DE8B
AccurateRip v2 signature : 444FCE8C
->Accurately ripped (v2, confidence 2/2)
Statistics
Read error : 0
Jitter error (maybe fixed) : 0
Retry sector count : 0
Damaged sector count : 0

Track 11
Filename : /Users/Music Files/Lord Kitchener - London Is The Place For Me 8- Lord Kitchener In England, 1948-1962 (2020) [FLAC]/11 Carnival in Town.flac

Track gain : -1.86 dB
Peak : 0.816437
CRC32 hash (test run) : 0574B7DD
CRC32 hash : 0574B7DD
CRC32 hash (skip zero) : CF46B1F1
AccurateRip v1 signature : C2A44AAF
AccurateRip v2 signature : CD7AB7A9
->Accurately ripped (v2, confidence 2/2)
Statistics
Read error : 0
Jitter error (maybe fixed) : 0
Retry sector count : 0
Damaged sector count : 0

Track 12
Filename : /Users/Music Files/Lord Kitchener - London Is The Place For Me 8- Lord Kitchener In England, 1948-1962 (2020) [FLAC]/12 Is Trouble.flac

Track gain : -5.65 dB
Peak : 0.778595
CRC32 hash (test run) : B4FA83CA
CRC32 hash : B4FA83CA
CRC32 hash (skip zero) : 245FECE8
AccurateRip v1 signature : 6E298F3F
AccurateRip v2 signature : 2B89B532
->Accurately ripped (v2, confidence 2/2)
Statistics
Read error : 0
Jitter error (maybe fixed) : 0
Retry sector count : 0
Damaged sector count : 0

Track 13
Filename : /Users/Music Files/Lord Kitchener - London Is The Place For Me 8- Lord Kitchener In England, 1948-1962 (2020) [FLAC]/13 If You Brown.flac

Track gain : 0.43 dB
Peak : 0.521637
CRC32 hash (test run) : D5A60926
CRC32 hash : D5A60926
CRC32 hash (skip zero) : 34645187
AccurateRip v1 signature : 8A6F9916
AccurateRip v2 signature : 9563C800
->Accurately ripped (v2, confidence 2/2)
Statistics
Read error : 0
Jitter error (maybe fixed) : 0
Retry sector count : 0
Damaged sector count : 0

Track 14
Filename : /Users/Music Files/Lord Kitchener - London Is The Place For Me 8- Lord Kitchener In England, 1948-1962 (2020) [FLAC]/14 Life Begins at Forty.flac

Track gain : 1.67 dB
Peak : 0.684235
CRC32 hash (test run) : B14437A6
CRC32 hash : B14437A6
CRC32 hash (skip zero) : 5694C0A8
AccurateRip v1 signature : B58EDFE9
AccurateRip v2 signature : 4C4C1789
->Accurately ripped (v2, confidence 2/2)
Statistics
Read error : 0
Jitter error (maybe fixed) : 0
Retry sector count : 0
Damaged sector count : 0

Track 15
Filename : /Users/Music Files/Lord Kitchener - London Is The Place For Me 8- Lord Kitchener In England, 1948-1962 (2020) [FLAC]/15 Manchester Football Double.flac

Track gain : -0.74 dB
Peak : 0.685913
CRC32 hash (test run) : 4340C0E9
CRC32 hash : 4340C0E9
CRC32 hash (skip zero) : 1F933FF7
AccurateRip v1 signature : 25134723
AccurateRip v2 signature : 497D19A0
->Accurately ripped (v2, confidence 2/2)
Statistics
Read error : 0
Jitter error (maybe fixed) : 0
Retry sector count : 0
Damaged sector count : 0

Track 16
Filename : /Users/Music Files/Lord Kitchener - London Is The Place For Me 8- Lord Kitchener In England, 1948-1962 (2020) [FLAC]/16 The Denis Compton Calypso.flac

Track gain : 0.63 dB
Peak : 0.755371
CRC32 hash (test run) : F4A89965
CRC32 hash : F4A89965
CRC32 hash (skip zero) : A34CFFC0
AccurateRip v1 signature : 206E5C5E
AccurateRip v2 signature : 9A379055
->Accurately ripped (v2, confidence 2/2)
Statistics
Read error : 0
Jitter error (maybe fixed) : 0
Retry sector count : 0
Damaged sector count : 0

Track 17
Filename : /Users/Music Files/Lord Kitchener - London Is The Place For Me 8- Lord Kitchener In England, 1948-1962 (2020) [FLAC]/17 Mistress Jacob.flac

Track gain : -0.36 dB
Peak : 0.623901
CRC32 hash (test run) : 1C508474
CRC32 hash : 1C508474
CRC32 hash (skip zero) : 5A6B9864
AccurateRip v1 signature : EC1A7AF7
AccurateRip v2 signature : 3DA3C769
->Accurately ripped (v2, confidence 2/2)
Statistics
Read error : 0
Jitter error (maybe fixed) : 0
Retry sector count : 0
Damaged sector count : 0

Track 18
Filename : /Users/Music Files/Lord Kitchener - London Is The Place For Me 8- Lord Kitchener In England, 1948-1962 (2020) [FLAC]/18 London Is the Place for Me.flac

Track gain : 2.75 dB
Peak : 0.591339
CRC32 hash (test run) : 310A0BFB
CRC32 hash : 310A0BFB
CRC32 hash (skip zero) : 15F72058
AccurateRip v1 signature : 594413B5
AccurateRip v2 signature : 085D176D
->Accurately ripped (v2, confidence 2/2)
Statistics
Read error : 0
Jitter error (maybe fixed) : 0
Retry sector count : 0
Damaged sector count : 0

Track 19
Filename : /Users/Music Files/Lord Kitchener - London Is The Place For Me 8- Lord Kitchener In England, 1948-1962 (2020) [FLAC]/19 Tie Tongue Mopsie.flac

Track gain : 3.40 dB
Peak : 0.634888
CRC32 hash (test run) : A27BEDD9
CRC32 hash : A27BEDD9
CRC32 hash (skip zero) : 227986D8
AccurateRip v1 signature : 229BD54E
AccurateRip v2 signature : 30053069
->Accurately ripped (v2, confidence 2/2)
Statistics
Read error : 0
Jitter error (maybe fixed) : 0
Retry sector count : 0
Damaged sector count : 0

Track 20
Filename : /Users/Music Files/Lord Kitchener - London Is The Place For Me 8- Lord Kitchener In England, 1948-1962 (2020) [FLAC]/20 Dora (Meet Me at the Pawnshop).flac

Track gain : -0.60 dB
Peak : 0.592224
CRC32 hash (test run) : 3F9DA78B
CRC32 hash : 3F9DA78B
CRC32 hash (skip zero) : BC64D673
AccurateRip v1 signature : 60082314
AccurateRip v2 signature : CD2BBBB2
->Accurately ripped (v2, confidence 2/2)
Statistics
Read error : 0
Jitter error (maybe fixed) : 0
Retry sector count : 0
Damaged sector count : 0

Track 21
Filename : /Users/Music Files/Lord Kitchener - London Is The Place For Me 8- Lord Kitchener In England, 1948-1962 (2020) [FLAC]/21 If You're Not White You're Black.flac

Track gain : 3.80 dB
Peak : 0.558350
CRC32 hash (test run) : EA2FF57A
CRC32 hash : EA2FF57A
CRC32 hash (skip zero) : E502D878
AccurateRip v1 signature : A5D963A7
AccurateRip v2 signature : C9F95B1A
->Accurately ripped (v2, confidence 2/2)
Statistics
Read error : 0
Jitter error (maybe fixed) : 0
Retry sector count : 0
Damaged sector count : 0

Track 22
Filename : /Users/Music Files/Lord Kitchener - London Is The Place For Me 8- Lord Kitchener In England, 1948-1962 (2020) [FLAC]/22 Africa My Home.flac

Track gain : 1.83 dB
Peak : 0.829834
CRC32 hash (test run) : 3F05CF99
CRC32 hash : 3F05CF99
CRC32 hash (skip zero) : E8FA5D4A
AccurateRip v1 signature : 475211FE
AccurateRip v2 signature : 1C5CCF12
->Accurately ripped (v2, confidence 2/2)
Statistics
Read error : 0
Jitter error (maybe fixed) : 0
Retry sector count : 0
Damaged sector count : 0

Track 23
Filename : /Users/Music Files/Lord Kitchener - London Is The Place For Me 8- Lord Kitchener In England, 1948-1962 (2020) [FLAC]/23 Nora.flac

Track gain : 2.67 dB
Peak : 0.753265
CRC32 hash (test run) : AB19BE92
CRC32 hash : AB19BE92
CRC32 hash (skip zero) : CC64F296
AccurateRip v1 signature : 3E7BA2DA
AccurateRip v2 signature : 322F646A
->Accurately ripped (v2, confidence 2/2)
Statistics
Read error : 0
Jitter error (maybe fixed) : 0
Retry sector count : 0
Damaged sector count : 0

Track 24
Filename : /Users/Music Files/Lord Kitchener - London Is The Place For Me 8- Lord Kitchener In England, 1948-1962 (2020) [FLAC]/24 Kitch in the Jungle.flac

Track gain : -1.84 dB
Peak : 0.817200
CRC32 hash (test run) : C46F333F
CRC32 hash : C46F333F
CRC32 hash (skip zero) : 123C31A8
AccurateRip v1 signature : 957CBB0E
AccurateRip v2 signature : C616B97F
->Accurately ripped (v2, confidence 2/2)
Statistics
Read error : 0
Jitter error (maybe fixed) : 0
Retry sector count : 0
Damaged sector count : 0

No errors occurred

End of status report

––-BEGIN XLD SIGNATURE––-
16cJgj7.yDkS6DjyUprUsino6YBgt9HmKwtnUOPtoP_BUlIKTSwbovD3AyKmYysps4Tk0mEbL7qq.AJDxEDFE7GcfaIGcJROnmzg3I4
––-END XLD SIGNATURE––-

Thanks to the Original ripper !