Subcategories

Misfits - The Misfits Box {also known as 'Coffin' Box Set} (4CD, 1996) RESTORED

Posted By: Rehabilly
Misfits - The Misfits Box {also known as 'Coffin' Box Set} (4CD, 1996) RESTORED

Misfits - The Misfits Box {'Coffin' Box Set} (4CD, 1996)
FLAC+CUE+LOG or MP3 CBR 320 | 211:42 min | 1,51 GB or 478 MB

106 remastered tracks: the entire contents of COLLECTIONS I & II, EVILLIVE, STATIC AGE, EARTH A.D., LEGACY OF BRUTALITY & the 30 tracks collection of "Sessions", featuring alternate versions and outtakes, including the original '1977 "Cough/Cool" single…

The Misfits' legend grew over the years following the original band's breakup to warrant an increasing number of compilations like "Legacy of Brutality" and the baldly titled "Collection" (followed some years later by, but of course, "Collection II"). Sometimes worthwhile, sometimes incredibly slapdash, they fueled the fire but still did the fans a major disservice, especially given the repetition and overlap on many releases. Though it has its flaws, the coffin-shaped Box Set finally put things as right as seems possible with the Misfits, exhaustively covering all the releases the late-'70s/early-'80s version of the group put out (the exception being "Walk Among Us" due to a label-rights situation). The first two discs feature, respectively, the material on the two "Collection" releases and "Legacy of Brutality", "Evilive", and "Earth A.D.". The third compiles a slew of different demo and recording sessions, including the original trio lineup (with Danzig on electric piano) on the "Cough/Cool" & "She" single takes, while the fourth presents the planned-but-never-released-as-such "Static Age" for the first time. Though recording quality itself varies widely over the discs and arguably some of the mastering could have been sharper (Danzig's own occasional remastering jobs in previous years weren't used here), it's still an explosive and exhaustive effort that any fan needs.

Disc 1
01. Collection I: She
02. Collection I: Hollywood Babylon
03. Collection I: Horror Business
04. Collection I: Teenagers From Mars
05. Collection I: Night Of The Living Dead
06. Collection I: Where Eagles Dare
07. Collection I: Vampira
08. Collection I: I Turned Into A Martian
09. Collection I: Skulls
10. Collection I: London Dungeon
11. Collection I: Ghoul's Night Out
12. Collection I: Astro Zombies
13. Collection I: Mommy, Can I Go Out And Kill Tonight?
14. Collection I: Die, Die My Darling
15. Collection II: Cough/Cool
16. Collection II: Children In Heat
17. Collection II: Horror Hotel
18. Collection II: Halloween
19. Collection II: Halloween II
20. Collection II: Hate Breeders
21. Collection II: Braineaters
22. Collection II: Nike-A-Go-Go
23. Collection II: Devil's Whorehouse
24. Collection II: Mephisto Waltz
25. Collection II: Rat Fink
26. Collection II: We Bite

Exact Audio Copy V0.99 prebeta 3 from 28. July 2007

EAC extraction logfile from 29. August 2007, 19:22

The Misfits / The 'Coffin' Box Set (CD1)

Used drive : PLEXTOR DVDR PX-716A Adapter: 1 ID: 1

Read mode : Secure
Utilize accurate stream : Yes
Defeat audio cache : Yes
Make use of C2 pointers : No

Read offset correction : 30
Overread into Lead-In and Lead-Out : No
Fill up missing offset samples with silence : Yes
Delete leading and trailing silent blocks : No
Null samples used in CRC calculations : Yes
Used interface : Installed external ASPI interface

Used output format : Internal WAV Routines
Sample format : 44.100 Hz; 16 Bit; Stereo


TOC of the extracted CD

Track | Start | Length | Start sector | End sector
––––––––––––––––––––––––––––-
1 | 0:00.00 | 1:22.50 | 0 | 6199
2 | 1:22.50 | 2:20.13 | 6200 | 16712
3 | 3:42.63 | 2:45.72 | 16713 | 29159
4 | 6:28.60 | 2:35.29 | 29160 | 40813
5 | 9:04.14 | 1:57.64 | 40814 | 49652
6 | 11:02.03 | 2:08.42 | 49653 | 59294
7 | 13:10.45 | 1:21.32 | 59295 | 65401
8 | 14:32.02 | 1:44.06 | 65402 | 73207
9 | 16:16.08 | 1:58.70 | 73208 | 82127
10 | 18:15.03 | 2:34.33 | 82128 | 93710
11 | 20:49.36 | 1:58.02 | 93711 | 102562
12 | 22:47.38 | 2:11.18 | 102563 | 112405
13 | 24:58.56 | 2:01.60 | 112406 | 121540
14 | 27:00.41 | 3:11.30 | 121541 | 135895
15 | 30:11.71 | 2:16.47 | 135896 | 146142
16 | 32:28.43 | 2:07.55 | 146143 | 155722
17 | 34:36.23 | 1:27.59 | 155723 | 162306
18 | 36:04.07 | 1:52.34 | 162307 | 170740
19 | 37:56.41 | 2:13.26 | 170741 | 180741
20 | 40:09.67 | 2:45.50 | 180742 | 193166
21 | 42:55.42 | 0:59.24 | 193167 | 197615
22 | 43:54.66 | 2:15.52 | 197616 | 207792
23 | 46:10.43 | 1:48.52 | 207793 | 215944
24 | 47:59.20 | 1:45.24 | 215945 | 223843
25 | 49:44.44 | 1:52.29 | 223844 | 232272
26 | 51:36.73 | 1:15.22 | 232273 | 237919


Range status and errors

Selected range

Filename C:\200\The Misfits - The 'Coffin' Box Set (4CD, 1996)\Disc 1\The Misfits - The 'Coffin' Box Set (CD1).wav

Peak level 100.0 %
Range quality 100.0 %
Test CRC 3CCD2189
Copy CRC 3CCD2189
Copy OK

No errors occurred


AccurateRip summary

Track 1 accurately ripped (confidence 3) [723A445E]
Track 2 accurately ripped (confidence 3) [E51BA223]
Track 3 accurately ripped (confidence 3) [9AD3B34B]
Track 4 accurately ripped (confidence 3) [0694BCDF]
Track 5 accurately ripped (confidence 3) [C9650CD6]
Track 6 accurately ripped (confidence 3) [29460349]
Track 7 accurately ripped (confidence 2) [78A9DB1D]
Track 8 accurately ripped (confidence 2) [90D3A231]
Track 9 accurately ripped (confidence 2) [93B417D0]
Track 10 accurately ripped (confidence 2) [1D8A4F09]
Track 11 accurately ripped (confidence 2) [86CF863A]
Track 12 accurately ripped (confidence 2) [20EACB0F]
Track 13 accurately ripped (confidence 2) [E1CEE2DA]
Track 14 accurately ripped (confidence 2) [36C2E43E]
Track 15 accurately ripped (confidence 2) [ED508A13]
Track 16 accurately ripped (confidence 2) [4FB201D8]
Track 17 accurately ripped (confidence 2) [9ECD7D1B]
Track 18 accurately ripped (confidence 2) [5052D30D]
Track 19 accurately ripped (confidence 2) [739A2055]
Track 20 accurately ripped (confidence 2) [099BDEB0]
Track 21 accurately ripped (confidence 2) [8EA2DF77]
Track 22 accurately ripped (confidence 2) [709822DD]
Track 23 accurately ripped (confidence 2) [98EB0DDC]
Track 24 accurately ripped (confidence 2) [D7F6C639]
Track 25 accurately ripped (confidence 2) [BFEA9ED7]
Track 26 accurately ripped (confidence 2) [C7FA74F0]

All tracks accurately ripped

End of status report



Disc 2
01. Legacy Of Brutality: Static Age
02. Legacy Of Brutality: T.V. Casualty
03. Legacy Of Brutality: Hybrid Moments
04. Legacy Of Brutality: Spinal Remains
05. Legacy Of Brutality: Come Back
06. Legacy Of Brutality: Some Kinda Hate
07. Legacy Of Brutality: Theme For A Jackel
08. Legacy Of Brutality: Angelfuck
09. Legacy Of Brutality: Who Killed Marilyn?
10. Legacy Of Brutality: Where Eagles Dare
11. Legacy Of Brutality: She
12. Legacy Of Brutality: Halloween
13. Legacy Of Brutality: American Nightmare
14. Evilive: 20 Eyes
15. Evilive: Night Of The Living Dead
16. Evilive: Astro Zombies
17. Evilive: Horror Business
18. Evilive: London Dungeon
19. Evilive: Nike-A-Go-Go
20. Evilive: Hate Breeders
21. Evilive: Devil's Whorehouse
22. Evilive: All Hell Breaks Loose
23. Evilive: Horror Hotel
24. Evilive: Ghoul's Night Out
25. Evilive: We Are 138
26. Earth A.D.: Earth Ad
27. Earth A.D.: Queen Wasp
28. Earth A.D.: Devilock
29. Earth A.D.: Death Comes Ripping
30. Earth A.D.: Green Hell
31. Earth A.D.: Wolfsblood
32. Earth A.D.: Demonomania
33. Earth A.D.: Bloodfeast
34. Earth A.D.: Hellhound

Exact Audio Copy V0.99 prebeta 3 from 28. July 2007

EAC extraction logfile from 29. August 2007, 19:49

The Misfits / The 'Coffin' Box Set (CD2)

Used drive : PLEXTOR DVDR PX-716A Adapter: 1 ID: 1

Read mode : Secure
Utilize accurate stream : Yes
Defeat audio cache : Yes
Make use of C2 pointers : No

Read offset correction : 30
Overread into Lead-In and Lead-Out : No
Fill up missing offset samples with silence : Yes
Delete leading and trailing silent blocks : No
Null samples used in CRC calculations : Yes
Used interface : Installed external ASPI interface

Used output format : Internal WAV Routines
Sample format : 44.100 Hz; 16 Bit; Stereo


TOC of the extracted CD

Track | Start | Length | Start sector | End sector
––––––––––––––––––––––––––––-
1 | 0:00.00 | 1:47.40 | 0 | 8064
2 | 1:47.40 | 2:34.69 | 8065 | 19683
3 | 4:22.34 | 1:40.17 | 19684 | 27200
4 | 6:02.51 | 1:24.46 | 27201 | 33546
5 | 7:27.22 | 5:01.30 | 33547 | 56151
6 | 12:28.52 | 2:07.35 | 56152 | 65711
7 | 14:36.12 | 2:38.16 | 65712 | 77577
8 | 17:14.28 | 1:36.21 | 77578 | 84798
9 | 18:50.49 | 1:57.32 | 84799 | 93605
10 | 20:48.06 | 1:59.52 | 93606 | 102582
11 | 22:47.58 | 1:22.42 | 102583 | 108774
12 | 24:10.25 | 1:47.14 | 108775 | 116813
13 | 25:57.39 | 1:47.09 | 116814 | 124847
14 | 27:44.48 | 1:56.05 | 124848 | 133552
15 | 29:40.53 | 1:42.64 | 133553 | 141266
16 | 31:23.42 | 2:03.23 | 141267 | 150514
17 | 33:26.65 | 2:05.09 | 150515 | 159898
18 | 35:31.74 | 2:14.29 | 159899 | 169977
19 | 37:46.28 | 3:22.46 | 169978 | 185173
20 | 41:08.74 | 2:39.05 | 185174 | 197103
21 | 43:48.04 | 1:40.12 | 197104 | 204615
22 | 45:28.16 | 1:33.37 | 204616 | 211627
23 | 47:01.53 | 1:12.64 | 211628 | 217091
24 | 48:14.42 | 1:42.39 | 217092 | 224780
25 | 49:57.06 | 1:29.06 | 224781 | 231461
26 | 51:26.12 | 2:09.09 | 231462 | 241145
27 | 53:35.21 | 1:32.36 | 241146 | 248081
28 | 55:07.57 | 1:25.74 | 248082 | 254530
29 | 56:33.56 | 1:54.21 | 254531 | 263101
30 | 58:28.02 | 1:53.43 | 263102 | 271619
31 | 60:21.45 | 1:12.33 | 271620 | 277052
32 | 61:34.03 | 0:45.12 | 277053 | 280439
33 | 62:19.15 | 2:29.69 | 280440 | 291683
34 | 64:49.09 | 1:16.25 | 291684 | 297408


Range status and errors

Selected range

Filename C:\200\The Misfits - The 'Coffin' Box Set (4CD, 1996)\Disc 2\The Misfits - The 'Coffin' Box Set (CD2).wav

Peak level 100.0 %
Range quality 100.0 %
Test CRC 5AA57A3B
Copy CRC 5AA57A3B
Copy OK

No errors occurred


AccurateRip summary

Track 1 accurately ripped (confidence 2) [254B88CB]
Track 2 accurately ripped (confidence 1) [8D8273DF]
Track 3 accurately ripped (confidence 2) [4F4D7D19]
Track 4 accurately ripped (confidence 2) [3517A9F7]
Track 5 accurately ripped (confidence 2) [72067308]
Track 6 accurately ripped (confidence 2) [94C845FE]
Track 7 accurately ripped (confidence 2) [8CD22452]
Track 8 accurately ripped (confidence 2) [1803AF3E]
Track 9 accurately ripped (confidence 2) [EF23E821]
Track 10 accurately ripped (confidence 2) [E3942603]
Track 11 accurately ripped (confidence 2) [0456EEEA]
Track 12 accurately ripped (confidence 2) [EC949AB6]
Track 13 accurately ripped (confidence 2) [8F2EB727]
Track 14 accurately ripped (confidence 1) [F75BB15E]
Track 15 accurately ripped (confidence 1) [D152F4D1]
Track 16 accurately ripped (confidence 1) [D0043AE8]
Track 17 accurately ripped (confidence 1) [B76F6044]
Track 18 accurately ripped (confidence 1) [E1937D95]
Track 19 accurately ripped (confidence 1) [E2028EAA]
Track 20 accurately ripped (confidence 1) [3892C167]
Track 21 accurately ripped (confidence 1) [52A6EBDC]
Track 22 accurately ripped (confidence 1) [02CD5F58]
Track 23 accurately ripped (confidence 1) [3DBBC88C]
Track 24 accurately ripped (confidence 1) [22A2C775]
Track 25 accurately ripped (confidence 1) [59F923D6]
Track 26 accurately ripped (confidence 1) [57840472]
Track 27 accurately ripped (confidence 1) [75291ABA]
Track 28 accurately ripped (confidence 1) [91D147C0]
Track 29 accurately ripped (confidence 1) [9BF362B1]
Track 30 accurately ripped (confidence 1) [3CD4CDE1]
Track 31 accurately ripped (confidence 1) [D0F05DA5]
Track 32 accurately ripped (confidence 1) [F528C712]
Track 33 accurately ripped (confidence 1) [04FA0B7D]
Track 34 accurately ripped (confidence 1) [5BC2FD4F]

All tracks accurately ripped

End of status report



Disc 3
01. Session (1977): Cough/Cool
02. Session (1977): She
03. (Date Unknown. No Studio): Who Killed Marilyn?
04. (Date Unknown. No Studio): Where Eagles Dare
05. (Date Unknown. No Studio): Horror Business
06. (Date Unknown. No Studio): Teenagers From Mars
07. (Date Unknown. No Studio): Children In Heat
08. (Date Unknown. Songshop): Night Of The Living Dead
09. (Date Unknown. Songshop): Where Eagles Dare
10. (Date Unknown. Songshop): Vampira
11. (Date Unknown. Songshop): Violent World
12. (Date Unknown. Songshop): Who Killed Marilyn?
13. (Date Unknown. Songshop): Spook City USA
14. (Date Unknown. Songshop): Horror Business
15. (9/5/80. Master Sound Productions): I Turned Into A Martian
16. (9/5/80. Master Sound Productions): Skulls
17. (9/5/80. Master Sound Productions): Night Of The Living Dead
18. (9/5/80. Master Sound Productions): Astro Zombies
19. (9/5/80. Master Sound Productions): Where Eagles Dare
20. (9/5/80. Master Sound Productions): Violent World
21. (9/5/80. Master Sound Productions): Halloween II
22. (8/81. Reel Platinum): 20 Eyes
23. (8/81. Reel Platinum): I Turned Into A Martian
24. (8/81. Reel Platinum): Astro Zombies
25. (8/81. Reel Platinum): Vampira
26. (8/81. Reel Platinum): Devil's Whorehouse
27. (Date Unknown. Mix-O-Lydian Or Newsoundland): Nike-A-Go-Go
28. (Date Unknown. Studio Unknown): Hate Breeders
29. (Date Unknown. Studio Unknown): 20 Eyes
30. (Date Unknown. Studio Unknown): Violent World

Exact Audio Copy V0.99 prebeta 3 from 28. July 2007

EAC extraction logfile from 29. August 2007, 20:14

The Misfits / The 'Coffin' Box Set (CD3)

Used drive : PLEXTOR DVDR PX-716A Adapter: 1 ID: 1

Read mode : Secure
Utilize accurate stream : Yes
Defeat audio cache : Yes
Make use of C2 pointers : No

Read offset correction : 30
Overread into Lead-In and Lead-Out : No
Fill up missing offset samples with silence : Yes
Delete leading and trailing silent blocks : No
Null samples used in CRC calculations : Yes
Used interface : Installed external ASPI interface

Used output format : Internal WAV Routines
Sample format : 44.100 Hz; 16 Bit; Stereo


TOC of the extracted CD

Track | Start | Length | Start sector | End sector
––––––––––––––––––––––––––––-
1 | 0:00.00 | 2:09.29 | 0 | 9703
2 | 2:09.29 | 1:18.35 | 9704 | 15588
3 | 3:27.64 | 2:00.43 | 15589 | 24631
4 | 5:28.32 | 2:03.07 | 24632 | 33863
5 | 7:31.39 | 2:44.73 | 33864 | 46236
6 | 10:16.37 | 2:32.42 | 46237 | 57678
7 | 12:49.04 | 2:08.47 | 57679 | 67325
8 | 14:57.51 | 2:04.63 | 67326 | 76688
9 | 17:02.39 | 1:53.54 | 76689 | 85217
10 | 18:56.18 | 1:38.29 | 85218 | 92596
11 | 20:34.47 | 1:52.52 | 92597 | 101048
12 | 22:27.24 | 1:52.43 | 101049 | 109491
13 | 24:19.67 | 2:15.29 | 109492 | 119645
14 | 26:35.21 | 2:36.41 | 119646 | 131386
15 | 29:11.62 | 1:51.73 | 131387 | 139784
16 | 31:03.60 | 1:54.69 | 139785 | 148403
17 | 32:58.54 | 1:53.06 | 148404 | 156884
18 | 34:51.60 | 2:15.73 | 156885 | 167082
19 | 37:07.58 | 1:39.43 | 167083 | 174550
20 | 38:47.26 | 1:36.74 | 174551 | 181824
21 | 40:24.25 | 2:31.23 | 181825 | 193172
22 | 42:55.48 | 2:08.48 | 193173 | 202820
23 | 45:04.21 | 2:00.05 | 202821 | 211825
24 | 47:04.26 | 2:15.45 | 211826 | 221995
25 | 49:19.71 | 1:21.44 | 221996 | 228114
26 | 50:41.40 | 1:47.41 | 228115 | 236180
27 | 52:29.06 | 2:41.22 | 236181 | 248277
28 | 55:10.28 | 3:10.57 | 248278 | 262584
29 | 58:21.10 | 1:48.00 | 262585 | 270684
30 | 60:09.10 | 1:36.60 | 270685 | 277944


Range status and errors

Selected range

Filename C:\200\The Misfits - The 'Coffin' Box Set (4CD, 1996)\Disc 3\The Misfits - The 'Coffin' Box Set (CD3).wav

Peak level 100.0 %
Range quality 100.0 %
Test CRC 2C17DC8E
Copy CRC 2C17DC8E
Copy OK

No errors occurred


AccurateRip summary

Track 1 accurately ripped (confidence 1) [2B5F1CAF]
Track 2 accurately ripped (confidence 1) [FC22F2F9]
Track 3 accurately ripped (confidence 1) [F8B9EE5A]
Track 4 accurately ripped (confidence 1) [7C5CA171]
Track 5 accurately ripped (confidence 1) [03EABFC7]
Track 6 accurately ripped (confidence 1) [8DCB0FB3]
Track 7 accurately ripped (confidence 1) [6BED8C42]
Track 8 accurately ripped (confidence 1) [6B433EAA]
Track 9 accurately ripped (confidence 1) [BB718327]
Track 10 accurately ripped (confidence 1) [B4F0E0FF]
Track 11 accurately ripped (confidence 1) [58BE1F9D]
Track 12 accurately ripped (confidence 1) [822EA91B]
Track 13 accurately ripped (confidence 1) [6237C462]
Track 14 accurately ripped (confidence 1) [4764B936]
Track 15 accurately ripped (confidence 1) [5FB4300A]
Track 16 accurately ripped (confidence 1) [5E9F5E1F]
Track 17 accurately ripped (confidence 1) [1E19DB68]
Track 18 accurately ripped (confidence 1) [C5D7589C]
Track 19 accurately ripped (confidence 1) [D677DACC]
Track 20 accurately ripped (confidence 1) [BC8B53FE]
Track 21 accurately ripped (confidence 1) [7BDFDAC1]
Track 22 accurately ripped (confidence 1) [43853725]
Track 23 accurately ripped (confidence 1) [BAD6030A]
Track 24 accurately ripped (confidence 1) [23059268]
Track 25 accurately ripped (confidence 1) [963912FD]
Track 26 accurately ripped (confidence 1) [45DD4B8D]
Track 27 accurately ripped (confidence 1) [F4B936F4]
Track 28 accurately ripped (confidence 1) [1C77F4B1]
Track 29 accurately ripped (confidence 1) [532AE63E]
Track 30 accurately ripped (confidence 1) [571B90C7]

All tracks accurately ripped

End of status report



Disc 4
01. Static Age: Static Intro
02. Static Age: Static Age
03. Static Age: T.V. Casualty
04. Static Age: Some Kinda Hate
05. Static Age: Last Caress
06. Static Age: Return Of The Fly
07. Static Age: Hybrid Moments
08. Static Age: We Are 138
09. Static Age: Teenagers From Mars
10. Static Age: Come Back
11. Static Age: Angelfuck
12. Static Age: Hollywood Babylon
13. Static Age: Attitude
14. Static Age: Bullet
15. Static Age: Theme For A Jackal
16. Static Age: Static Outro

Exact Audio Copy V0.99 prebeta 3 from 28. July 2007

EAC extraction logfile from 29. August 2007, 20:58

The Misfits / The 'Coffin' Box Set (CD4)

Used drive : PLEXTOR DVDR PX-716A Adapter: 1 ID: 1

Read mode : Secure
Utilize accurate stream : Yes
Defeat audio cache : Yes
Make use of C2 pointers : No

Read offset correction : 30
Overread into Lead-In and Lead-Out : No
Fill up missing offset samples with silence : Yes
Delete leading and trailing silent blocks : No
Null samples used in CRC calculations : Yes
Used interface : Installed external ASPI interface

Used output format : Internal WAV Routines
Sample format : 44.100 Hz; 16 Bit; Stereo


TOC of the extracted CD

Track | Start | Length | Start sector | End sector
––––––––––––––––––––––––––––-
1 | 0:00.00 | 0:06.58 | 0 | 507
2 | 0:06.58 | 1:47.28 | 508 | 8560
3 | 1:54.11 | 2:23.46 | 8561 | 19331
4 | 4:17.57 | 2:01.43 | 19332 | 28449
5 | 6:19.25 | 1:57.06 | 28450 | 37230
6 | 8:16.31 | 1:36.53 | 37231 | 44483
7 | 9:53.09 | 1:42.20 | 44484 | 52153
8 | 11:35.29 | 1:41.29 | 52154 | 59757
9 | 13:16.58 | 2:50.53 | 59758 | 72560
10 | 16:07.36 | 4:59.73 | 72561 | 95058
11 | 21:07.34 | 1:37.64 | 95059 | 102397
12 | 22:45.23 | 2:20.10 | 102398 | 112907
13 | 25:05.33 | 1:30.38 | 112908 | 119695
14 | 26:35.71 | 1:37.66 | 119696 | 127036
15 | 28:13.62 | 2:35.62 | 127037 | 138723
16 | 30:49.49 | 0:08.41 | 138724 | 139364


Range status and errors

Selected range

Filename C:\200\The Misfits - The 'Coffin' Box Set (4CD, 1996)\Disc 4\The Misfits - The 'Coffin' Box Set (CD4).wav

Peak level 100.0 %
Range quality 100.0 %
Test CRC 58182CF3
Copy CRC 58182CF3
Copy OK

No errors occurred


AccurateRip summary

Track 1 accurately ripped (confidence 1) [F2A92EA1]
Track 2 accurately ripped (confidence 1) [B0ECEA4E]
Track 3 accurately ripped (confidence 1) [8141E2DC]
Track 4 accurately ripped (confidence 1) [2752EA3E]
Track 5 accurately ripped (confidence 1) [00FEE441]
Track 6 accurately ripped (confidence 1) [2811A874]
Track 7 accurately ripped (confidence 1) [1B618645]
Track 8 accurately ripped (confidence 1) [FA0B4BB8]
Track 9 accurately ripped (confidence 1) [C54D0D27]
Track 10 accurately ripped (confidence 1) [AD1CA89B]
Track 11 accurately ripped (confidence 1) [FB08506F]
Track 12 accurately ripped (confidence 1) [212F289D]
Track 13 accurately ripped (confidence 1) [1116B081]
Track 14 accurately ripped (confidence 1) [8B1B3864]
Track 15 accurately ripped (confidence 1) [ABE0578C]
Track 16 accurately ripped (confidence 1) [725AB4CB]

All tracks accurately ripped

End of status report


Release Date: February 27, 1996
Number of Discs: 4
Label: Caroline Records
Catalog No.: 7529-2

SEE ALSO: Samhain - Box Set (5CD, 2000)
UPLOADABLE

196x = where "x" is number of the disc in the box
"F" is FLAC, "G" is MP3, "C" is the Book's scans.