Les Rita Mitsouko - Rita Mitsouko (1984)

Posted By: L@ter
Les Rita Mitsouko - Rita Mitsouko (1984)

Les Rita Mitsouko - Rita Mitsouko (1984)
EAC Rip | FLAC, IMG+CUE, LOG | 393 MB | 59,36 Min | Covers
Label: Virgin France | Pop, Rock | Recorded 1984 (Germany) | RAR 3% Rec.

Rita Mitsouko is the self titled début album by Les Rita Mitsouko. At the time of release the group was simply called Rita Mitsouko. Catherine Ringer and Fred Chichin decided to add 'Les' to 'Rita Mitsouko' at this point to avoid mistakenly identifying the band only as Catherine's. Les Rita Mitsouko was a French pop rock group formed by guitarist Fred Chichin and singer Catherine Ringer. The duo first performed as Rita Mitsouko at Gibus Club, Paris in 1980. They went on to become one of the most successful musical acts of the 1980s in France. The duet has stated that the name "Rita Mitsouko" originates from the combination of Catherine Ringer's childhood friend and the name of a meal they enjoyed in a local Japanese restaurant soon after they met….. Wikipedia


Tracklist

01. Restez avec moi
02. Jalousie
03. Le Futur N° 4
04. La fille venue du froid
05. Yaktagan
06. In My Tea
07. Marcia Baïla
08. Oum Khalsoum
09. Amnésie
10. Don't Forget The Nite
11. Galoping
12. Dans la Steppe
13. Minuit dansant
14. 'Aïe (Kriptonite Miss Spleïn)




Exact Audio Copy V0.99 prebeta 5 from 4. May 2009

EAC extraction logfile from 17. December 2010, 19:07

Les Rita Mitsouko / Rita Mitsouko

Used drive : HL-DT-STDVD-RAM GH22NP20 Adapter: 1 ID: 0

Read mode : Secure
Utilize accurate stream : Yes
Defeat audio cache : Yes
Make use of C2 pointers : No

Read offset correction : 102
Overread into Lead-In and Lead-Out : No
Fill up missing offset samples with silence : Yes
Delete leading and trailing silent blocks : No
Null samples used in CRC calculations : Yes
Used interface : Native Win32 interface for Win NT & 2000

Used output format : User Defined Encoder
Selected bitrate : 768 kBit/s
Quality : High
Add ID3 tag : No
Command line compressor : C:\Program Files\Exact Audio Copy\FLAC\FLAC.EXE
Additional command line options : -6 -V -T "ARTIST=%a" -T "TITLE=%t" -T "ALBUM=%g" -T "DATE=%y" -T "TRACKNUMBER=%n" -T "GENRE=%m" -T "COMMENT=%e" %s -o %d


TOC of the extracted CD

Track | Start | Length | Start sector | End sector
––––––––––––––––––––––––––––-
1 | 0:00.00 | 4:13.08 | 0 | 18982
2 | 4:13.08 | 4:30.40 | 18983 | 39272
3 | 8:43.48 | 3:34.12 | 39273 | 55334
4 | 12:17.60 | 7:01.18 | 55335 | 86927
5 | 19:19.03 | 3:28.15 | 86928 | 102542
6 | 22:47.18 | 2:57.40 | 102543 | 115857
7 | 25:44.58 | 5:35.07 | 115858 | 140989
8 | 31:19.65 | 4:10.25 | 140990 | 159764
9 | 35:30.15 | 2:58.38 | 159765 | 173152
10 | 38:28.53 | 2:42.27 | 173153 | 185329
11 | 41:11.05 | 5:01.63 | 185330 | 207967
12 | 46:12.68 | 4:12.32 | 207968 | 226899
13 | 50:25.25 | 4:01.53 | 226900 | 245027
14 | 54:27.03 | 5:09.45 | 245028 | 268247


Range status and errors

Selected range

Filename C:\Les Rita Mitsouko - Rita Mitsouko.wav

Peak level 100.0 %
Range quality 100.0 %
Copy CRC A052B4B6
Copy OK

No errors occurred


AccurateRip summary

Track 1 not present in database
Track 2 not present in database
Track 3 not present in database
Track 4 not present in database
Track 5 not present in database
Track 6 not present in database
Track 7 not present in database
Track 8 not present in database
Track 9 not present in database
Track 10 not present in database
Track 11 not present in database
Track 12 not present in database
Track 13 not present in database
Track 14 not present in database

None of the tracks are present in the AccurateRip database

End of status report


REM GENRE "Pop, Rock"
REM DATE 1984
REM DISCID BD0DF80E
REM COMMENT "ExactAudioCopy v0.99pb5"
PERFORMER "Les Rita Mitsouko"
TITLE "Rita Mitsouko"
FILE "Les Rita Mitsouko - Rita Mitsouko.flac" WAVE
TRACK 01 AUDIO
TITLE "Restez Avec Moi"
PERFORMER "Les Rita Mitsouko"
INDEX 01 00:00:00
TRACK 02 AUDIO
TITLE "Jalousie"
PERFORMER "Les Rita Mitsouko"
INDEX 01 04:13:08
TRACK 03 AUDIO
TITLE "Le Futur N° 4"
PERFORMER "Les Rita Mitsouko"
INDEX 01 08:43:48
TRACK 04 AUDIO
TITLE "La Fille Venue Du Froid"
PERFORMER "Les Rita Mitsouko"
INDEX 01 12:17:60
TRACK 05 AUDIO
TITLE "Yaktagan"
PERFORMER "Les Rita Mitsouko"
INDEX 01 19:19:03
TRACK 06 AUDIO
TITLE "In My Tea"
PERFORMER "Les Rita Mitsouko"
INDEX 01 22:47:18
TRACK 07 AUDIO
TITLE "Marcia Baïla"
PERFORMER "Les Rita Mitsouko"
INDEX 01 25:44:58
TRACK 08 AUDIO
TITLE "Oum Khalsoum"
PERFORMER "Les Rita Mitsouko"
INDEX 01 31:19:65
TRACK 09 AUDIO
TITLE "Amnésie"
PERFORMER "Les Rita Mitsouko"
INDEX 01 35:30:15
TRACK 10 AUDIO
TITLE "Don't Forget The Nite"
PERFORMER "Les Rita Mitsouko"
INDEX 01 38:28:53
TRACK 11 AUDIO
TITLE "Galoping"
PERFORMER "Les Rita Mitsouko"
INDEX 01 41:11:05
TRACK 12 AUDIO
TITLE "Dans La Steppe"
PERFORMER "Les Rita Mitsouko"
INDEX 01 46:12:68
TRACK 13 AUDIO
TITLE "Minuit Dansant"
PERFORMER "Les Rita Mitsouko"
INDEX 01 50:25:25
TRACK 14 AUDIO
TITLE "'Aïe (Kriptonite Miss Spleïn)"
PERFORMER "Les Rita Mitsouko"
INDEX 01 54:27:03