Les Rita Mitsouko - The No Comprendo (1986)

Posted By: L@ter
Les Rita Mitsouko - The No Comprendo (1986)

Les Rita Mitsouko - The No Comprendo (1986)
EAC Rip | FLAC, IMG+CUE, LOG | 313 MB | 51,37 Min | Covers
Label: Virgin France | Pop, Rock | 20 September 1986 | RAR 3% Rec.

Les Rita Mitsouko was a French pop rock group formed by guitarist Fred Chichin and singer Catherine Ringer. The duo first performed as Rita Mitsouko at Gibus Club, Paris in 1980. They went on to become one of the most successful musical acts of the 1980s in France. The No Comprendo is the second studio album by French musical duo Les Rita Mitsouko. The album is sometimes referred to as Les Rita Mitsouko Presentent The No Comprendo. The album was the first of two albums by the duo that were produced by Tony Visconti, and was recorded in his studio; Good Earth Studios, London.  Wikipedia


Tracklist

01. Les histoires d'A
02. Andy
03. C'est comme ça
04. Vol de nuit
05. Someone to Love
06. Stupid Anyway
07. Un soir de chien
08. Bad Days
09. Tonite
10. Nuit d'ivresse
11. Andy (English Version)


Exact Audio Copy V0.99 prebeta 5 from 4. May 2009

EAC extraction logfile from 16. December 2010, 13:09

Les Rita Mitsouko / The No Comprendo

Used drive : HL-DT-STDVD-RAM GH22NP20 Adapter: 1 ID: 0

Read mode : Secure
Utilize accurate stream : Yes
Defeat audio cache : Yes
Make use of C2 pointers : No

Read offset correction : 102
Overread into Lead-In and Lead-Out : No
Fill up missing offset samples with silence : Yes
Delete leading and trailing silent blocks : No
Null samples used in CRC calculations : Yes
Used interface : Native Win32 interface for Win NT & 2000

Used output format : User Defined Encoder
Selected bitrate : 768 kBit/s
Quality : High
Add ID3 tag : No
Command line compressor : C:\Program Files\Exact Audio Copy\FLAC\FLAC.EXE
Additional command line options : -6 -V -T "ARTIST=%a" -T "TITLE=%t" -T "ALBUM=%g" -T "DATE=%y" -T "TRACKNUMBER=%n" -T "GENRE=%m" -T "COMMENT=%e" %s -o %d


TOC of the extracted CD

Track | Start | Length | Start sector | End sector
––––––––––––––––––––––––––––-
1 | 0:00.00 | 4:00.25 | 0 | 18024
2 | 4:00.25 | 5:24.32 | 18025 | 42356
3 | 9:24.57 | 4:53.73 | 42357 | 64404
4 | 14:18.55 | 4:09.52 | 64405 | 83131
5 | 18:28.32 | 3:03.30 | 83132 | 96886
6 | 21:31.62 | 4:46.33 | 96887 | 118369
7 | 26:18.20 | 5:41.55 | 118370 | 143999
8 | 32:00.00 | 5:00.40 | 144000 | 166539
9 | 37:00.40 | 5:01.57 | 166540 | 189171
10 | 42:02.22 | 3:39.20 | 189172 | 205616
11 | 45:41.42 | 5:55.50 | 205617 | 232291


Range status and errors

Selected range

Filename C:\Les Rita Mitsouko - The No Comprendo.wav

Peak level 100.0 %
Range quality 100.0 %
Copy CRC CA7A13CB
Copy OK

No errors occurred


End of status report


REM GENRE "Rock, Pop"
REM DATE 1986
REM DISCID 7C0C190B
REM COMMENT "ExactAudioCopy v0.99pb5"
PERFORMER "Les Rita Mitsouko"
TITLE "The No Comprendo"
FILE "Les Rita Mitsouko - The No Comprendo.flac" WAVE
TRACK 01 AUDIO
TITLE "Les Histoires d'A."
PERFORMER "Les Rita Mitsouko"
INDEX 01 00:00:00
TRACK 02 AUDIO
TITLE "Andy"
PERFORMER "Les Rita Mitsouko"
INDEX 01 04:00:25
TRACK 03 AUDIO
TITLE "C'est Comme Ça"
PERFORMER "Les Rita Mitsouko"
INDEX 01 09:24:57
TRACK 04 AUDIO
TITLE "Vol De Nuit"
PERFORMER "Les Rita Mitsouko"
INDEX 01 14:18:55
TRACK 05 AUDIO
TITLE "Someone To Love"
PERFORMER "Les Rita Mitsouko"
INDEX 01 18:28:32
TRACK 06 AUDIO
TITLE "Stupid Anyway"
PERFORMER "Les Rita Mitsouko"
INDEX 01 21:31:62
TRACK 07 AUDIO
TITLE "Un Soir Un Chien"
PERFORMER "Les Rita Mitsouko"
INDEX 01 26:18:20
TRACK 08 AUDIO
TITLE "Bad Days"
PERFORMER "Les Rita Mitsouko"
INDEX 01 32:00:00
TRACK 09 AUDIO
TITLE "Tonite"
PERFORMER "Les Rita Mitsouko"
INDEX 01 37:00:40
TRACK 10 AUDIO
TITLE "Nuit D'ivresse"
PERFORMER "Les Rita Mitsouko"
INDEX 01 42:02:22
TRACK 11 AUDIO
TITLE "Andy (English Version)"
PERFORMER "Les Rita Mitsouko"
INDEX 01 45:41:42