The Ramones - It's Alive (1979) [Warner Achives, Reissue 1995] RESTORED

Posted By: Rehabilly
The Ramones - It's Alive (1979) [Warner Achives, Reissue 1995] RESTORED

Ramones - It's Alive (1979)
FLAC+CUE+LOG or MP3 CBR 320 | 53:49 min | 458 or 149 MB

Recorded live at the Rainbow Theatre, London, England on December 31, 1977. This is the Holy Grail of live concert recordings. Long unavailable in the U.S., It's Alive captures the Ramones in peak form, having the time of their lives before an appreciative British audience. From Joey's slow drawl "Weeeeeeellllll, it's great to be back here in…" to Dee Dee's "1-2-3-4", this disc pummels the listener into submission with the complete live Ramones experience to the point where you can practically feel the sweat. All the classics from the first three albums are executed with an enthusiasm the Ramones rarely mustered years down the line. The live version of "Blitzkrieg Bop" will send shivers down even the hardiest Coney Island strongman's spine, and "We're a Happy Family", "Teenage Lobotomy", and "Today Your Love, Tomorrow the World" express what it is to be young and dumb better than a thousand John Hughes films ever could. It"s Alive is the next best thing to actually seeing the Ramones live and, as that's not likely to happen, this set will go a long way towards satisfying your Ramones fix.

One of the greatest live albums of all time, It's Alive captures the Ramones at their absolute peak. Recorded at London's Rainbow Theater on New Year's Eve 1977, the album contains 28 songs (every one a classic) from the band's landmark first three albums: Ramones, Ramones Leave Home, and Rocket to Russia performed at breakneck speed in under an hour. In fact, the band only pauses long enough for bassist Dee Dee to count off the next tune – "one-two-three-four!" – and for singer Joey to complain about some bad chicken vindaloo. It has often been said that the Ramones helped save rock & roll by making it fun again – It's Alive is the perfect case in point. Long live the Ramones!

~ Ed Rivadavia, all media guide

Tracklist:

01. Rockaway Beach
02. Teenage Lobotomy
03. Blitzkrieg Bop
04. I Wanna Be Well
05. Glad To See You Go
06. Gimme Gimme Shock Treatment
07. You're Gonna Kill That Girl
08. I Don't Care
09. Sheena Is A Punk Rocker
10. Havana Affair
11. Commando
12. Here Today, Gone Tomorrow
13. Surfin' Bird
14. Cretin Hop
15. Listen To My Heart
16. California Sun
17. I Don't Wanna Walk Around With You
18. Pinhead
19. Do You Wanna Dance
20. Chainsaw
21. Today Your Love, Tomorrow The World
22. I Wanna Be A Good Boy
23. Judy Is A Punk
24. Suzy Is A Headbanger
25. Let's Dance
26. Oh Oh I Love Her So
27. Now I Wanna Sniff Some Glue
28. We're A Happy Family

Exact Audio Copy V1.0 beta 1 from 15. November 2010

EAC extraction logfile from 3. February 2011, 2:48

Ramones / It's Alive

Used drive : PIONEER DVD-RW DVR-116D Adapter: 1 ID: 0

Read mode : Secure
Utilize accurate stream : Yes
Defeat audio cache : Yes
Make use of C2 pointers : No

Read offset correction : 96
Overread into Lead-In and Lead-Out : No
Fill up missing offset samples with silence : Yes
Delete leading and trailing silent blocks : No
Null samples used in CRC calculations : Yes
Used interface : Installed external ASPI interface

Used output format : Internal WAV Routines
Sample format : 44.100 Hz; 16 Bit; Stereo


TOC of the extracted CD

Track | Start | Length | Start sector | End sector
––––––––––––––––––––––––––––-
1 | 0:00.00 | 2:23.57 | 0 | 10781
2 | 2:23.57 | 1:54.45 | 10782 | 19376
3 | 4:18.27 | 2:05.00 | 19377 | 28751
4 | 6:23.27 | 2:23.23 | 28752 | 39499
5 | 8:46.50 | 1:51.10 | 39500 | 47834
6 | 10:37.60 | 1:37.32 | 47835 | 55141
7 | 12:15.17 | 2:28.15 | 55142 | 66256
8 | 14:43.32 | 1:41.05 | 66257 | 73836
9 | 16:24.37 | 2:16.08 | 73837 | 84044
10 | 18:40.45 | 1:34.42 | 84045 | 91136
11 | 20:15.12 | 1:39.55 | 91137 | 98616
12 | 21:54.67 | 2:54.65 | 98617 | 111731
13 | 24:49.57 | 2:20.00 | 111732 | 122231
14 | 27:09.57 | 1:46.20 | 122232 | 130201
15 | 28:56.02 | 1:35.55 | 130202 | 137381
16 | 30:31.57 | 1:45.20 | 137382 | 145276
17 | 32:17.02 | 1:24.50 | 145277 | 151626
18 | 33:41.52 | 2:45.45 | 151627 | 164046
19 | 36:27.22 | 1:39.25 | 164047 | 171496
20 | 38:06.47 | 1:28.62 | 171497 | 178158
21 | 39:35.34 | 1:55.36 | 178159 | 186819
22 | 41:30.70 | 2:03.12 | 186820 | 196056
23 | 43:34.07 | 1:13.40 | 196057 | 201571
24 | 44:47.47 | 1:53.33 | 201572 | 210079
25 | 46:41.05 | 2:03.05 | 210080 | 219309
26 | 48:44.10 | 1:39.42 | 219310 | 226776
27 | 50:23.52 | 1:18.18 | 226777 | 232644
28 | 51:41.70 | 2:06.45 | 232645 | 242139


Range status and errors

Selected range

Filename C:\AvaxHome.ru\Ramones - It's Alive (1979) [1st US Press]\Ramones - It's Alive (46045-2).wav

Peak level 94.3 %
Extraction speed 0.3 X
Range quality 100.0 %
Test CRC 3EA0098F
Copy CRC 3EA0098F
Copy OK

No errors occurred


AccurateRip summary

Track 1 accurately ripped (confidence 11) [B20585AD]
Track 2 accurately ripped (confidence 11) [6CCCE52D]
Track 3 accurately ripped (confidence 11) [DC38C18C]
Track 4 accurately ripped (confidence 11) [9FEF99C7]
Track 5 accurately ripped (confidence 11) [1DA948EE]
Track 6 accurately ripped (confidence 11) [6CC78049]
Track 7 accurately ripped (confidence 11) [A0033C71]
Track 8 accurately ripped (confidence 11) [33EB9DA8]
Track 9 accurately ripped (confidence 11) [92352713]
Track 10 accurately ripped (confidence 11) [E4B89F13]
Track 11 accurately ripped (confidence 11) [1FBADD98]
Track 12 accurately ripped (confidence 11) [AAE4E124]
Track 13 accurately ripped (confidence 11) [F7C3B738]
Track 14 accurately ripped (confidence 11) [D6548F22]
Track 15 accurately ripped (confidence 11) [7078713A]
Track 16 accurately ripped (confidence 11) [5EB55070]
Track 17 accurately ripped (confidence 11) [5DFEF5AE]
Track 18 accurately ripped (confidence 11) [5AC86106]
Track 19 accurately ripped (confidence 11) [94CC41AC]
Track 20 accurately ripped (confidence 11) [0211BD20]
Track 21 accurately ripped (confidence 11) [460718D4]
Track 22 accurately ripped (confidence 11) [12B75CEE]
Track 23 accurately ripped (confidence 11) [B798B0A2]
Track 24 accurately ripped (confidence 11) [6F2C6ECB]
Track 25 accurately ripped (confidence 11) [0770EF05]
Track 26 accurately ripped (confidence 11) [3B20D9A4]
Track 27 accurately ripped (confidence 11) [71C1A3B3]
Track 28 accurately ripped (confidence 11) [ED82C91F]

All tracks accurately ripped

End of status report

==== Log checksum E03DDABE23AC2B0EE053AE3D6B38B3E55F7F03931E0BBDBE08B1361314BD88E0 ====



Produced by Tom Erdelyi and Ed Stasium. Engineered by Ed Stasium
Recorded live at the Rainbow Theatre, London, England, New Year Eve, December 31 '1977.

• Joey Ramone – lead vocals
• Johnny Ramone – guitar
• Dee Dee Ramone – bass
• Tommy Ramone – drums

Original 2xLP Released: April 1979
U.S. Release Date: October 10, 1995
Format: Original Recording Reissued
Label: Sire Records/Warner Archives
Catalog No.: 46045-2

The Right choice*
https://www.bigfile.to/file/98nxwtr3pTxA/RAM179IT14FC.rar

lossy.mp3
https://www.bigfile.to/file/qTrYFrKhyr25/RAM179IT20GC.rar


* EAC Image, embedded cuesheet & more, foobar2000 ready, etc.
(all CUEs, LOGs and other technical info includes in the internal "CD_Support" archive)

Archives with FLAC includes complete PNG/JPG artwork / Archives with MP3 includes complete JPG artwork
______________________