Tags
Language
Tags

PJ Harvey - White Chalk (Demos) (2021)

Posted By: delpotro
PJ Harvey - White Chalk (Demos) (2021)

PJ Harvey - White Chalk (Demos) (2021)
EAC Rip | FLAC (tracks+log+.cue) | 00:34:01 | 191 Mb
Alternative Rock, Female Vocal | Label: Island Records

Collection of unreleased demos written for the seventh PJ Harvey studio album White Chalk, including demos of ‘When Under Ether’, ‘The Piano’ and ‘The Devil’. Features brand new artwork with previously unseen photos by Maria Mochnacz. Artwork is overseen by Maria with Rob Crane. Mastering by Jason Mitchell at Loud Mastering, under the guidance of long time PJ Harvey producer John Parish.
Tracklist:
1. The Devil (Demo) (02:38)
2. Dear Darkness (Demo) (03:09)
3. Grow Grow Grow (Demo) (03:22)
4. When Under Ether (Demo) (02:25)
5. White Chalk (Demo) (03:44)
6. Broken Harp (Demo) (02:00)
7. Silence (Demo) (02:46)
8. To Talk To You (Demo) (04:24)
9. The Piano (Demo) (02:41)
10. Before Departure (Demo) (03:38)
11. The Mountain (Demo) (03:08)

Exact Audio Copy V1.5 from 20. February 2020

EAC extraction logfile from 20. May 2022, 19:00

PJ Harvey / White Chalk - Demos

Used drive : PLEXTOR DVDR PX-891SAW Adapter: 1 ID: 0

Read mode : Secure
Utilize accurate stream : Yes
Defeat audio cache : Yes
Make use of C2 pointers : No

Read offset correction : 48
Overread into Lead-In and Lead-Out : No
Fill up missing offset samples with silence : Yes
Delete leading and trailing silent blocks : No
Null samples used in CRC calculations : Yes
Used interface : Native Win32 interface for Win NT & 2000
Gap handling : Appended to previous track

Used output format : User Defined Encoder
Selected bitrate : 1024 kBit/s
Quality : High
Add ID3 tag : No
Command line compressor : C:\Program Files (x86)\Exact Audio Copy\FLAC\FLAC.EXE
Additional command line options : -8 -V -T "ARTIST=%artist%" -T "TITLE=%title%" -T "ALBUM=%albumtitle%" -T "DATE=%year%" -T "TRACKNUMBER=%tracknr%" -T "GENRE=%genre%" -T "COMMENT=%comment%" -T "BAND=%albuminterpret%" -T "ALBUMARTIST=%albuminterpret%" -T "COMPOSER=%composer%" %haslyrics%–tag-from-file=LYRICS="%lyricsfile%"%haslyrics% -T "DISCNUMBER=%cdnumber%" -T "TOTALDISCS=%totalcds%" -T "TOTALTRACKS=%numtracks%" %hascover%–picture="%coverfile%"%hascover% %source% -o %dest%


TOC of the extracted CD

Track | Start | Length | Start sector | End sector
––––––––––––––––––––––––––––-
1 | 0:00.00 | 2:39.15 | 0 | 11939
2 | 2:39.15 | 3:09.28 | 11940 | 26142
3 | 5:48.43 | 3:22.03 | 26143 | 41295
4 | 9:10.46 | 2:25.06 | 41296 | 52176
5 | 11:35.52 | 3:44.57 | 52177 | 69033
6 | 15:20.34 | 2:00.00 | 69034 | 78033
7 | 17:20.34 | 2:46.03 | 78034 | 90486
8 | 20:06.37 | 4:24.44 | 90487 | 110330
9 | 24:31.06 | 2:41.69 | 110331 | 122474
10 | 27:13.00 | 3:38.72 | 122475 | 138896
11 | 30:51.72 | 3:09.37 | 138897 | 153108


Track 1

Filename E:\_____EAC\PJ Harvey - White Chalk - Demos (2021) [FLAC]\01. The Devil.wav

Pre-gap length 0:00:02.00

Peak level 99.5 %
Extraction speed 4.0 X
Track quality 100.0 %
Test CRC C7459F02
Copy CRC C7459F02
Accurately ripped (confidence 13) [5F1C7AAE] (AR v2)
Copy OK

Track 2

Filename E:\_____EAC\PJ Harvey - White Chalk - Demos (2021) [FLAC]\02. Dear Darkness.wav

Peak level 85.6 %
Extraction speed 4.5 X
Track quality 100.0 %
Test CRC 2F136981
Copy CRC 2F136981
Accurately ripped (confidence 13) [AF93039B] (AR v2)
Copy OK

Track 3

Filename E:\_____EAC\PJ Harvey - White Chalk - Demos (2021) [FLAC]\03. Grow Grow Grow.wav

Peak level 98.9 %
Extraction speed 4.8 X
Track quality 100.0 %
Test CRC 7B153004
Copy CRC 7B153004
Accurately ripped (confidence 13) [6ECFE122] (AR v2)
Copy OK

Track 4

Filename E:\_____EAC\PJ Harvey - White Chalk - Demos (2021) [FLAC]\04. When Under Ether.wav

Peak level 93.9 %
Extraction speed 2.9 X
Track quality 99.9 %
Test CRC 0FC26426
Copy CRC 0FC26426
Accurately ripped (confidence 13) [B2A66C68] (AR v2)
Copy OK

Track 5

Filename E:\_____EAC\PJ Harvey - White Chalk - Demos (2021) [FLAC]\05. White Chalk.wav

Peak level 99.8 %
Extraction speed 3.8 X
Track quality 99.9 %
Test CRC 7F56B47C
Copy CRC 7F56B47C
Accurately ripped (confidence 13) [902CF510] (AR v2)
Copy OK

Track 6

Filename E:\_____EAC\PJ Harvey - White Chalk - Demos (2021) [FLAC]\06. Broken Harp.wav

Peak level 94.4 %
Extraction speed 5.1 X
Track quality 100.0 %
Test CRC A49903B6
Copy CRC A49903B6
Accurately ripped (confidence 13) [302CA26F] (AR v2)
Copy OK

Track 7

Filename E:\_____EAC\PJ Harvey - White Chalk - Demos (2021) [FLAC]\07. Silence.wav

Peak level 97.9 %
Extraction speed 5.7 X
Track quality 100.0 %
Test CRC 3A54013A
Copy CRC 3A54013A
Accurately ripped (confidence 13) [6A2DCB62] (AR v2)
Copy OK

Track 8

Filename E:\_____EAC\PJ Harvey - White Chalk - Demos (2021) [FLAC]\08. To Talk to You.wav

Peak level 94.2 %
Extraction speed 4.5 X
Track quality 99.9 %
Test CRC 7CA4D127
Copy CRC 7CA4D127
Accurately ripped (confidence 13) [32AC3802] (AR v2)
Copy OK

Track 9

Filename E:\_____EAC\PJ Harvey - White Chalk - Demos (2021) [FLAC]\09. The Piano.wav

Peak level 93.7 %
Extraction speed 6.1 X
Track quality 100.0 %
Test CRC DEAD393A
Copy CRC DEAD393A
Accurately ripped (confidence 13) [7A4DF61A] (AR v2)
Copy OK

Track 10

Filename E:\_____EAC\PJ Harvey - White Chalk - Demos (2021) [FLAC]\10. Before Departure.wav

Peak level 98.7 %
Extraction speed 6.7 X
Track quality 100.0 %
Test CRC 94251D44
Copy CRC 94251D44
Accurately ripped (confidence 13) [B3CB3A34] (AR v2)
Copy OK

Track 11

Filename E:\_____EAC\PJ Harvey - White Chalk - Demos (2021) [FLAC]\11. The Mountain.wav

Peak level 98.9 %
Extraction speed 6.7 X
Track quality 100.0 %
Test CRC 8BB2B3FF
Copy CRC 8BB2B3FF
Accurately ripped (confidence 13) [DE324D8C] (AR v2)
Copy OK


All tracks accurately ripped

No errors occurred

End of status report

–– CUETools DB Plugin V2.1.6

[CTDB TOCID: LZK5k6HgooUcwBwWrh4VDPGUgYo-] found
Submit result: LZK5k6HgooUcwBwWrh4VDPGUgYo- has been confirmed
Track | CTDB Status
1 | (45/45) Accurately ripped
2 | (45/45) Accurately ripped
3 | (45/45) Accurately ripped
4 | (45/45) Accurately ripped
5 | (45/45) Accurately ripped
6 | (45/45) Accurately ripped
7 | (45/45) Accurately ripped
8 | (45/45) Accurately ripped
9 | (45/45) Accurately ripped
10 | (45/45) Accurately ripped
11 | (45/45) Accurately ripped


==== Log checksum 93ED64BBCBD5EA8F7BFDE682FD81643DBFE8BEEB6B22C0BC90893A0072E4C604 ====

Thanks to the Original ripper !