Nina Hagen - The Very Best Of Nina Hagen (1990) {CBS}

Posted By: ruskaval
Nina Hagen - The Very Best Of Nina Hagen (1990) {CBS}

Nina Hagen - The Very Best Of Nina Hagen (1990) {CBS}
EAC rip (secure mode) | FLAC+CUE+LOG -> 494 Mb | MP3 @320 -> 166 Mb
Full Artwork @ 300 dpi (jpg) -> 12 Mb
© 1990 CBS Records | 467339 2
Rock / Post Punk / Alternative / Indie


Nina Hagen - The Very Best Of Nina Hagen (1990) {CBS}

The Very Best of Nina Hagen is a greatest hits collection from Nina Hagen, released in 1990.

Born in East Germany, Nina Hagen had already gained a reputation as a flamboyant rock singer by the time she emigrated to the West in 1976, where she formed a band, signed to CBS Germany, and released their debut album, Nina Hagen Band, in 1978. It was followed in 1980 by Unbehagen. Hagen's first U.S. release, Nina Hagen Band EP (1980), was a four-song EP consisting of songs drawn from her two German releases. She moved to New York and made her first English-language LP, Nunsexmonkrock, in 1982. That and its follow-up, the Giorgio Moroder-produced Fearless (1983), charted briefly, and "New York New York" was a Top Ten dance club hit. But Hagen left CBS after Nina Hagen in Ekstacy (1985). In 1988, she celebrated her marriage with the EP Punk Wedding, released in Canada, and in 1989 she returned to the German market with Nina Hagen.
tracklist:
01. Tv Glotzer (White Punks On Dope)
02. Superboy
03. African Reggae
04. Universelles Radio
05. Unbeschreiblich Weiblich
06. Smack Jack
07. Auf'm Bahnhof Zoo
08. Dread Love
09. Auf'm Rummel
10. New York/N.Y.
11. Wir Leben Noch (Lucky Number)
12. The Change
13. My Way
14. Heiss
15. Gott Im Himmel (Spirit In The Sky)
16. Zarah (Ich Weiss, Es Wird Einmal Ein Wunder Geschehen)

Nina Hagen - The Very Best Of Nina Hagen (1990) {CBS}

Exact Audio Copy V0.99 prebeta 5 from 4. May 2009

EAC extraction logfile from 19. December 2009, 18:06

Nina Hagen / The Very Best Of Nina Hagen

Used drive : TSSTcorpCD/DVDW TS-H552L Adapter: 3 ID: 0

Read mode : Secure
Utilize accurate stream : Yes
Defeat audio cache : Yes
Make use of C2 pointers : No

Read offset correction : 6
Overread into Lead-In and Lead-Out : No
Fill up missing offset samples with silence : Yes
Delete leading and trailing silent blocks : No
Null samples used in CRC calculations : Yes
Used interface : Native Win32 interface for Win NT & 2000
Gap handling : Appended to previous track

Used output format : User Defined Encoder
Selected bitrate : 1024 kBit/s
Quality : High
Add ID3 tag : No
Command line compressor : C:\Program Files\FLAC\flac.exe
Additional command line options : -6 -V -T "ARTIST=%a" -T "TITLE=%t" -T "ALBUM=%g" -T "DATE=%y" -T "TRACKNUMBER=%n" -T "GENRE=%m" -T "COMMENT=EAC FLAC -6" %s


TOC of the extracted CD

Track | Start | Length | Start sector | End sector
––––––––––––––––––––––––––––-
1 | 0:00.00 | 5:13.50 | 0 | 23524
2 | 5:13.50 | 4:03.00 | 23525 | 41749
3 | 9:16.50 | 6:18.25 | 41750 | 70124
4 | 15:35.00 | 3:35.00 | 70125 | 86249
5 | 19:10.00 | 3:31.25 | 86250 | 102099
6 | 22:41.25 | 5:17.25 | 102100 | 125899
7 | 27:58.50 | 5:25.25 | 125900 | 150299
8 | 33:24.00 | 4:10.00 | 150300 | 169049
9 | 37:34.00 | 4:34.00 | 169050 | 189599
10 | 42:08.00 | 4:58.00 | 189600 | 211949
11 | 47:06.00 | 4:56.00 | 211950 | 234149
12 | 52:02.00 | 4:40.00 | 234150 | 255149
13 | 56:42.00 | 4:27.50 | 255150 | 275224
14 | 61:09.50 | 4:08.25 | 275225 | 293849
15 | 65:18.00 | 3:35.00 | 293850 | 309974
16 | 68:53.00 | 5:01.25 | 309975 | 332574


Track 1

Filename C:\Nina Hagen - The Very Best Of Nina Hagen (1990) {CBS}\01 - TV-Glotzer (White Punks On Dope).wav

Pre-gap length 0:00:02.00

Peak level 97.7 %
Track quality 100.0 %
Test CRC 91BB5FEA
Copy CRC 91BB5FEA
Accurately ripped (confidence 28) [AB781B57]
Copy OK

Track 2

Filename C:\Nina Hagen - The Very Best Of Nina Hagen (1990) {CBS}\02 - Superboy.wav

Pre-gap length 0:00:01.06

Peak level 99.1 %
Track quality 100.0 %
Test CRC 03519CB7
Copy CRC 03519CB7
Accurately ripped (confidence 27) [011CAC00]
Copy OK

Track 3

Filename C:\Nina Hagen - The Very Best Of Nina Hagen (1990) {CBS}\03 - African Reggae.wav

Pre-gap length 0:00:01.16

Peak level 99.5 %
Track quality 100.0 %
Test CRC 06AB2025
Copy CRC 06AB2025
Accurately ripped (confidence 27) [3AF064CA]
Copy OK

Track 4

Filename C:\Nina Hagen - The Very Best Of Nina Hagen (1990) {CBS}\04 - Universelles Radio.wav

Pre-gap length 0:00:00.46

Peak level 100.0 %
Track quality 100.0 %
Test CRC D2D1362F
Copy CRC D2D1362F
Accurately ripped (confidence 28) [724AD850]
Copy OK

Track 5

Filename C:\Nina Hagen - The Very Best Of Nina Hagen (1990) {CBS}\05 - Unbeschreiblich.wav

Pre-gap length 0:00:01.04

Peak level 96.6 %
Track quality 100.0 %
Test CRC 998B19CB
Copy CRC 998B19CB
Accurately ripped (confidence 28) [5F99C697]
Copy OK

Track 6

Filename C:\Nina Hagen - The Very Best Of Nina Hagen (1990) {CBS}\06 - Smack Jack.wav

Pre-gap length 0:00:01.14

Peak level 99.7 %
Track quality 100.0 %
Test CRC 248A2C3E
Copy CRC 248A2C3E
Accurately ripped (confidence 28) [4C9305CE]
Copy OK

Track 7

Filename C:\Nina Hagen - The Very Best Of Nina Hagen (1990) {CBS}\07 - Auf'm Bahnhof Zoo.wav

Pre-gap length 0:00:01.04

Peak level 99.0 %
Track quality 100.0 %
Test CRC 8E567A4D
Copy CRC 8E567A4D
Accurately ripped (confidence 28) [4E3BB358]
Copy OK

Track 8

Filename C:\Nina Hagen - The Very Best Of Nina Hagen (1990) {CBS}\08 - Dread Love.wav

Pre-gap length 0:00:01.21

Peak level 99.6 %
Track quality 100.0 %
Test CRC 25A20A8F
Copy CRC 25A20A8F
Accurately ripped (confidence 28) [47E9A970]
Copy OK

Track 9

Filename C:\Nina Hagen - The Very Best Of Nina Hagen (1990) {CBS}\09 - Auf'm Rummel.wav

Pre-gap length 0:00:00.51

Peak level 99.4 %
Track quality 100.0 %
Test CRC 4EF741D5
Copy CRC 4EF741D5
Accurately ripped (confidence 28) [B38DD844]
Copy OK

Track 10

Filename C:\Nina Hagen - The Very Best Of Nina Hagen (1990) {CBS}\10 - New York , N.Y..wav

Pre-gap length 0:00:00.71

Peak level 100.0 %
Track quality 100.0 %
Test CRC 4AA723AA
Copy CRC 4AA723AA
Accurately ripped (confidence 28) [28038099]
Copy OK

Track 11

Filename C:\Nina Hagen - The Very Best Of Nina Hagen (1990) {CBS}\11 - Wir Leben Noch (Lucky number).wav

Pre-gap length 0:00:00.14

Peak level 98.4 %
Track quality 100.0 %
Test CRC 66F40C41
Copy CRC 66F40C41
Accurately ripped (confidence 28) [2DD3275E]
Copy OK

Track 12

Filename C:\Nina Hagen - The Very Best Of Nina Hagen (1990) {CBS}\12 - The Change.wav

Pre-gap length 0:00:01.09

Peak level 100.0 %
Track quality 100.0 %
Test CRC FF6B4007
Copy CRC FF6B4007
Accurately ripped (confidence 28) [6369703A]
Copy OK

Track 13

Filename C:\Nina Hagen - The Very Best Of Nina Hagen (1990) {CBS}\13 - My Way.wav

Pre-gap length 0:00:00.59

Peak level 99.5 %
Track quality 100.0 %
Test CRC 06D2E9E4
Copy CRC 06D2E9E4
Accurately ripped (confidence 28) [D0BE3D05]
Copy OK

Track 14

Filename C:\Nina Hagen - The Very Best Of Nina Hagen (1990) {CBS}\14 - Heiss.wav

Pre-gap length 0:00:01.14

Peak level 96.8 %
Track quality 100.0 %
Test CRC 81782DE1
Copy CRC 81782DE1
Accurately ripped (confidence 28) [7511CED4]
Copy OK

Track 15

Filename C:\Nina Hagen - The Very Best Of Nina Hagen (1990) {CBS}\15 - Gott Im Himmel (Spirit In The sky).wav

Pre-gap length 0:00:01.05

Peak level 96.2 %
Track quality 100.0 %
Test CRC 8100CF84
Copy CRC 8100CF84
Accurately ripped (confidence 28) [5DC1E805]
Copy OK

Track 16

Filename C:\Nina Hagen - The Very Best Of Nina Hagen (1990) {CBS}\16 - Zarah (Ich Weiss, Es Wird Einmal Ein Wunder Geschehen).wav

Pre-gap length 0:00:00.59

Peak level 99.0 %
Track quality 100.0 %
Test CRC C7FED303
Copy CRC C7FED303
Accurately ripped (confidence 28) [7CD4367C]
Copy OK


All tracks accurately ripped

No errors occurred

End of status report

Please don't post the links and passes in your comments…

Linkz