Tags
Language
Tags

Neil Young - Royce Hall 1971 (2022)

Posted By: delpotro
Neil Young - Royce Hall 1971 (2022)

Neil Young - Royce Hall 1971 (2022)
EAC Rip | FLAC (tracks+log+.cue) - 297 Mb | MP3 CBR 320 kbps - 131 Mb | 00:56:56
Folk Rock | Label: Reprise Records

There’s no sign of any let up in Neil Young’s current reissue/release productivity, with the announcement of three new albums in his ‘Official Bootleg Series’. These are Royce Hall, 1971, a solo acoustic gig which was recorded on 30 January of that year on the UCLA (University of California) campus; Dorothy Chandler Pavilion, 1971, another solo acoustic performance and the last US show of his 1971 solo tour; and, perhaps most excitingly, Citizen Kane Jr. Blues (Live at The Bottom Line), an On The Beach-heavy set from New York City, 1974.

If you are wondering about the audio quality, the message from the label is that “where analogue tape exists in Young’s archive, these concerts have been mixed properly, providing much higher quality recordings than have previously existed”.

This is the case for both Royce Hall and Dorothy Chandler Pavilion 1971 (i.e. they are both from the original analogue masters). If no tape exists, the original bootleg has been restored and remastered to make it sound as good as possible. This as is the case with Citizen Kane Jr. Blues (Live at The Bottom Line).
Tracklist:
01. On the Way Home
02. Tell Me Why
03. Old Man
04. Journey Through the Past
05. Cowgirl in the Sand
06. Heart of Gold
07. A Man Needs a Maid
08. See the Sky About to Rain
09. Sugar Mountain
10. Don't Let it Bring You Down
11. Love in Mind
12. The Needle and the Damage Done
13. Ohio
14. Down by the River
15. Dance Dance Dance
16. I Am a Child

Exact Audio Copy V1.6 from 23. October 2020

EAC extraction logfile from 22. May 2022, 22:42

Neil Young / Royce Hall 1971

Used drive : Optiarc DVD RW AD-5290S+ Adapter: 1 ID: 1

Read mode : Secure
Utilize accurate stream : Yes
Defeat audio cache : Yes
Make use of C2 pointers : No

Read offset correction : 6
Overread into Lead-In and Lead-Out : No
Fill up missing offset samples with silence : Yes
Delete leading and trailing silent blocks : No
Null samples used in CRC calculations : Yes
Used interface : Native Win32 interface for Win NT & 2000
Gap handling : Appended to previous track

Used output format : User Defined Encoder
Selected bitrate : 1024 kBit/s
Quality : High
Add ID3 tag : No
Command line compressor : C:\Program Files (x86)\Exact Audio Copy\FLAC\FLAC.EXE
Additional command line options : -8 -e -p -V -T "ARTIST=%artist%" -T "TITLE=%title%" -T "ALBUM=%albumtitle%" -T "DATE=%year%" -T "TRACKNUMBER=%tracknr%" -T "GENRE=%genre%" -T "PERFORMER=%albuminterpret%" -T "COMPOSER=%composer%" %haslyrics%–tag-from-file=LYRICS="%lyricsfile%"%haslyrics% -T "ALBUMARTIST=%albumartist%" -T "DISCNUMBER=%cdnumber%" -T "TOTALDISCS=%totalcds%" -T "TOTALTRACKS=%numtracks%" -T "COMMENT=%comment%" %source% -o %dest%


TOC of the extracted CD

Track | Start | Length | Start sector | End sector
––––––––––––––––––––––––––––-
1 | 0:00.00 | 3:16.18 | 0 | 14717
2 | 3:16.18 | 2:30.32 | 14718 | 25999
3 | 5:46.50 | 3:50.65 | 26000 | 43314
4 | 9:37.40 | 3:24.69 | 43315 | 58683
5 | 13:02.34 | 4:06.00 | 58684 | 77133
6 | 17:08.34 | 3:02.47 | 77134 | 90830
7 | 20:11.06 | 5:22.43 | 90831 | 115023
8 | 25:33.49 | 3:32.28 | 115024 | 130951
9 | 29:06.02 | 9:03.66 | 130952 | 171742
10 | 38:09.68 | 2:31.68 | 171743 | 183135
11 | 40:41.61 | 2:19.49 | 183136 | 193609
12 | 43:01.35 | 2:14.73 | 193610 | 203732
13 | 45:16.33 | 3:17.74 | 203733 | 218581
14 | 48:34.32 | 3:20.04 | 218582 | 233585
15 | 51:54.36 | 2:22.56 | 233586 | 244291
16 | 54:17.17 | 2:38.73 | 244292 | 256214


Track 1

Filename J:\__EAC rips\Neil Young - Royce Hall 1971 (2022) flac\01 - On the Way Home (Live).wav

Pre-gap length 0:00:02.00

Peak level 83.0 %
Extraction speed 3.2 X
Track quality 100.0 %
Test CRC DDD0E6B4
Copy CRC DDD0E6B4
Track not present in AccurateRip database
Copy OK

Track 2

Filename J:\__EAC rips\Neil Young - Royce Hall 1971 (2022) flac\02 - Tell Me Why (Live).wav

Peak level 72.8 %
Extraction speed 3.5 X
Track quality 100.0 %
Test CRC 92F5E63C
Copy CRC 92F5E63C
Track not present in AccurateRip database
Copy OK

Track 3

Filename J:\__EAC rips\Neil Young - Royce Hall 1971 (2022) flac\03 - Old Man (Live).wav

Peak level 95.5 %
Extraction speed 4.1 X
Track quality 100.0 %
Test CRC F64B1241
Copy CRC F64B1241
Track not present in AccurateRip database
Copy OK

Track 4

Filename J:\__EAC rips\Neil Young - Royce Hall 1971 (2022) flac\04 - Journey Through the Past (Live).wav

Peak level 72.8 %
Extraction speed 4.4 X
Track quality 100.0 %
Test CRC 60DF5CC2
Copy CRC 60DF5CC2
Track not present in AccurateRip database
Copy OK

Track 5

Filename J:\__EAC rips\Neil Young - Royce Hall 1971 (2022) flac\05 - Cowgirl in the Sand (Live).wav

Peak level 78.4 %
Extraction speed 3.9 X
Track quality 99.9 %
Test CRC 1EAD4803
Copy CRC 1EAD4803
Track not present in AccurateRip database
Copy OK

Track 6

Filename J:\__EAC rips\Neil Young - Royce Hall 1971 (2022) flac\06 - Heart of Gold (Live).wav

Peak level 71.0 %
Extraction speed 4.7 X
Track quality 100.0 %
Test CRC 510BB570
Copy CRC 510BB570
Track not present in AccurateRip database
Copy OK

Track 7

Filename J:\__EAC rips\Neil Young - Royce Hall 1971 (2022) flac\07 - A Man Needs a Maid (Live).wav

Peak level 92.8 %
Extraction speed 5.5 X
Track quality 100.0 %
Test CRC BD8E9A6C
Copy CRC BD8E9A6C
Track not present in AccurateRip database
Copy OK

Track 8

Filename J:\__EAC rips\Neil Young - Royce Hall 1971 (2022) flac\08 - See the Sky About to Rain (Live).wav

Peak level 70.7 %
Extraction speed 5.5 X
Track quality 100.0 %
Test CRC 97BF8E5A
Copy CRC 97BF8E5A
Track not present in AccurateRip database
Copy OK

Track 9

Filename J:\__EAC rips\Neil Young - Royce Hall 1971 (2022) flac\09 - Sugar Mountain (Live).wav

Peak level 86.2 %
Extraction speed 6.5 X
Track quality 100.0 %
Test CRC 45A209BB
Copy CRC 45A209BB
Track not present in AccurateRip database
Copy OK

Track 10

Filename J:\__EAC rips\Neil Young - Royce Hall 1971 (2022) flac\10 - Don't Let it Bring You Down (Live).wav

Peak level 84.0 %
Extraction speed 5.9 X
Track quality 100.0 %
Test CRC 26D9BCE0
Copy CRC 26D9BCE0
Track not present in AccurateRip database
Copy OK

Track 11

Filename J:\__EAC rips\Neil Young - Royce Hall 1971 (2022) flac\11 - Love in Mind (Live).wav

Peak level 86.4 %
Extraction speed 5.9 X
Track quality 100.0 %
Test CRC 0EC1127B
Copy CRC 0EC1127B
Track not present in AccurateRip database
Copy OK

Track 12

Filename J:\__EAC rips\Neil Young - Royce Hall 1971 (2022) flac\12 - The Needle and the Damage Done (Live).wav

Peak level 70.0 %
Extraction speed 5.9 X
Track quality 100.0 %
Test CRC 521D8274
Copy CRC 521D8274
Track not present in AccurateRip database
Copy OK

Track 13

Filename J:\__EAC rips\Neil Young - Royce Hall 1971 (2022) flac\13 - Ohio (Live).wav

Peak level 100.0 %
Extraction speed 6.5 X
Track quality 100.0 %
Test CRC C4BA91B3
Copy CRC C4BA91B3
Track not present in AccurateRip database
Copy OK

Track 14

Filename J:\__EAC rips\Neil Young - Royce Hall 1971 (2022) flac\14 - Down by the River (Live).wav

Peak level 92.6 %
Extraction speed 6.7 X
Track quality 100.0 %
Test CRC 1333EB24
Copy CRC 1333EB24
Track not present in AccurateRip database
Copy OK

Track 15

Filename J:\__EAC rips\Neil Young - Royce Hall 1971 (2022) flac\15 - Dance Dance Dance (Live).wav

Peak level 100.0 %
Extraction speed 4.6 X
Track quality 99.9 %
Test CRC C4CC5E4E
Copy CRC C4CC5E4E
Track not present in AccurateRip database
Copy OK

Track 16

Filename J:\__EAC rips\Neil Young - Royce Hall 1971 (2022) flac\16 - I Am a Child (Live).wav

Peak level 91.2 %
Extraction speed 6.7 X
Track quality 100.0 %
Test CRC 14B089CE
Copy CRC 14B089CE
Track not present in AccurateRip database
Copy OK


None of the tracks are present in the AccurateRip database

No errors occurred

End of status report

–– CUETools DB Plugin V2.1.6

[CTDB TOCID: bWsLe25l_ppzpEUWdt0ifieLVzk-] found
Submit result: bWsLe25l_ppzpEUWdt0ifieLVzk- has been confirmed
Track | CTDB Status
1 | (24/24) Accurately ripped
2 | (24/24) Accurately ripped
3 | (24/24) Accurately ripped
4 | (24/24) Accurately ripped
5 | (24/24) Accurately ripped
6 | (24/24) Accurately ripped
7 | (24/24) Accurately ripped
8 | (24/24) Accurately ripped
9 | (24/24) Accurately ripped
10 | (24/24) Accurately ripped
11 | (24/24) Accurately ripped
12 | (24/24) Accurately ripped
13 | (24/24) Accurately ripped
14 | (24/24) Accurately ripped
15 | (24/24) Accurately ripped
16 | (24/24) Accurately ripped


==== Log checksum FDB30EF0892D5075AA7C916DD8D5D9D8EC8D734CDB3E998E1E4A8D91D7C37E19 ====

Thanks to the Original ripper !