Tags
Language
Tags

Neil Young - Dorothy Chandler Pavilion 1971 (2022)

Posted By: delpotro
Neil Young - Dorothy Chandler Pavilion 1971 (2022)

Neil Young - Dorothy Chandler Pavilion 1971 (2022)
EAC Rip | FLAC (tracks+log+.cue) - 293 Mb | MP3 CBR 320 kbps - 133 Mb | 00:57:45
Folk Rock | Label: Reprise Records

There’s no sign of any let up in Neil Young’s current reissue/release productivity, with the announcement of three new albums in his ‘Official Bootleg Series’. These are Royce Hall, 1971, a solo acoustic gig which was recorded on 30 January of that year on the UCLA (University of California) campus; Dorothy Chandler Pavilion, 1971, another solo acoustic performance and the last US show of his 1971 solo tour; and, perhaps most excitingly, Citizen Kane Jr. Blues (Live at The Bottom Line), an On The Beach-heavy set from New York City, 1974.

If you are wondering about the audio quality, the message from the label is that “where analogue tape exists in Young’s archive, these concerts have been mixed properly, providing much higher quality recordings than have previously existed”.

This is the case for both Royce Hall and Dorothy Chandler Pavilion 1971 (i.e. they are both from the original analogue masters). If no tape exists, the original bootleg has been restored and remastered to make it sound as good as possible. This as is the case with Citizen Kane Jr. Blues (Live at The Bottom Line).
Tracklist:
1. On the Way Home (Live) (03:26)
2. Tell Me Why (Live) (03:15)
3. Old Man (Live) (03:30)
4. Journey Through the Past (Live) (03:02)
5. Cowgirl in the Sand (Live) (06:01)
6. Heart of Gold (Live) (04:14)
7. A Man Needs a Maid (Live) (04:30)
8. Sugar Mountain (Live) (08:46)
9. Don't Let it Bring You Down (Live) (02:39)
10. Love in Mind (Live) (02:53)
11. The Needle and the Damage Done (Live) (02:18)
12. Ohio (Live) (03:28)
13. See the Sky About to Rain (Live) (03:41)
14. I Am a Child (Live) (03:26)
15. Dance Dance Dance (Live) (02:31)

Exact Audio Copy V1.6 from 23. October 2020

EAC extraction logfile from 23. May 2022, 6:56

Neil Young / Dorothy Chandler Pavilion 1971

Used drive : Optiarc DVD RW AD-5290S+ Adapter: 1 ID: 1

Read mode : Secure
Utilize accurate stream : Yes
Defeat audio cache : Yes
Make use of C2 pointers : No

Read offset correction : 6
Overread into Lead-In and Lead-Out : No
Fill up missing offset samples with silence : Yes
Delete leading and trailing silent blocks : No
Null samples used in CRC calculations : Yes
Used interface : Native Win32 interface for Win NT & 2000
Gap handling : Appended to previous track

Used output format : User Defined Encoder
Selected bitrate : 1024 kBit/s
Quality : High
Add ID3 tag : No
Command line compressor : C:\Program Files (x86)\Exact Audio Copy\FLAC\FLAC.EXE
Additional command line options : -8 -e -p -V -T "ARTIST=%artist%" -T "TITLE=%title%" -T "ALBUM=%albumtitle%" -T "DATE=%year%" -T "TRACKNUMBER=%tracknr%" -T "GENRE=%genre%" -T "PERFORMER=%albuminterpret%" -T "COMPOSER=%composer%" %haslyrics%–tag-from-file=LYRICS="%lyricsfile%"%haslyrics% -T "ALBUMARTIST=%albumartist%" -T "DISCNUMBER=%cdnumber%" -T "TOTALDISCS=%totalcds%" -T "TOTALTRACKS=%numtracks%" -T "COMMENT=%comment%" %source% -o %dest%


TOC of the extracted CD

Track | Start | Length | Start sector | End sector
––––––––––––––––––––––––––––-
1 | 0:00.00 | 3:26.03 | 0 | 15452
2 | 3:26.03 | 3:15.31 | 15453 | 30108
3 | 6:41.34 | 3:30.19 | 30109 | 45877
4 | 10:11.53 | 3:02.62 | 45878 | 59589
5 | 13:14.40 | 6:01.08 | 59590 | 86672
6 | 19:15.48 | 4:14.31 | 86673 | 105753
7 | 23:30.04 | 4:30.34 | 105754 | 126037
8 | 28:00.38 | 8:46.26 | 126038 | 165513
9 | 36:46.64 | 2:39.22 | 165514 | 177460
10 | 39:26.11 | 2:53.18 | 177461 | 190453
11 | 42:19.29 | 2:18.41 | 190454 | 200844
12 | 44:37.70 | 3:28.21 | 200845 | 216465
13 | 48:06.16 | 3:40.74 | 216466 | 233039
14 | 51:47.15 | 3:26.64 | 233040 | 248553
15 | 55:14.04 | 2:31.37 | 248554 | 259915


Track 1

Filename J:\__EAC rips\Neil Young - Dorothy Chandler Pavilion 1971 (2022) flac\01 - On the Way Home (Live).wav

Pre-gap length 0:00:02.00

Peak level 86.1 %
Extraction speed 3.4 X
Track quality 100.0 %
Test CRC 88A6A583
Copy CRC 88A6A583
Track not present in AccurateRip database
Copy OK

Track 2

Filename J:\__EAC rips\Neil Young - Dorothy Chandler Pavilion 1971 (2022) flac\02 - Tell Me Why (Live).wav

Peak level 76.1 %
Extraction speed 3.7 X
Track quality 100.0 %
Test CRC B10C14A4
Copy CRC B10C14A4
Track not present in AccurateRip database
Copy OK

Track 3

Filename J:\__EAC rips\Neil Young - Dorothy Chandler Pavilion 1971 (2022) flac\03 - Old Man (Live).wav

Peak level 87.7 %
Extraction speed 4.1 X
Track quality 100.0 %
Test CRC 388D4FAF
Copy CRC 388D4FAF
Track not present in AccurateRip database
Copy OK

Track 4

Filename J:\__EAC rips\Neil Young - Dorothy Chandler Pavilion 1971 (2022) flac\04 - Journey Through the Past (Live).wav

Peak level 99.6 %
Extraction speed 4.3 X
Track quality 100.0 %
Test CRC 331D2C3E
Copy CRC 331D2C3E
Track not present in AccurateRip database
Copy OK

Track 5

Filename J:\__EAC rips\Neil Young - Dorothy Chandler Pavilion 1971 (2022) flac\05 - Cowgirl in the Sand (Live).wav

Peak level 95.8 %
Extraction speed 5.0 X
Track quality 100.0 %
Test CRC D6F2438E
Copy CRC D6F2438E
Track not present in AccurateRip database
Copy OK

Track 6

Filename J:\__EAC rips\Neil Young - Dorothy Chandler Pavilion 1971 (2022) flac\06 - Heart of Gold (Live).wav

Peak level 80.5 %
Extraction speed 5.2 X
Track quality 100.0 %
Test CRC 1E09E7F3
Copy CRC 1E09E7F3
Track not present in AccurateRip database
Copy OK

Track 7

Filename J:\__EAC rips\Neil Young - Dorothy Chandler Pavilion 1971 (2022) flac\07 - A Man Needs a Maid (Live).wav

Peak level 88.9 %
Extraction speed 5.6 X
Track quality 100.0 %
Test CRC D4818B5A
Copy CRC D4818B5A
Track not present in AccurateRip database
Copy OK

Track 8

Filename J:\__EAC rips\Neil Young - Dorothy Chandler Pavilion 1971 (2022) flac\08 - Sugar Mountain (Live).wav

Peak level 85.3 %
Extraction speed 6.3 X
Track quality 100.0 %
Test CRC C566E02D
Copy CRC C566E02D
Track not present in AccurateRip database
Copy OK

Track 9

Filename J:\__EAC rips\Neil Young - Dorothy Chandler Pavilion 1971 (2022) flac\09 - Don't Let it Bring You Down (Live).wav

Peak level 95.7 %
Extraction speed 5.9 X
Track quality 100.0 %
Test CRC 30FB4336
Copy CRC 30FB4336
Track not present in AccurateRip database
Copy OK

Track 10

Filename J:\__EAC rips\Neil Young - Dorothy Chandler Pavilion 1971 (2022) flac\10 - Love in Mind (Live).wav

Peak level 83.5 %
Extraction speed 6.1 X
Track quality 100.0 %
Test CRC F7C93042
Copy CRC F7C93042
Track not present in AccurateRip database
Copy OK

Track 11

Filename J:\__EAC rips\Neil Young - Dorothy Chandler Pavilion 1971 (2022) flac\11 - The Needle and the Damage Done (Live).wav

Peak level 94.8 %
Extraction speed 6.0 X
Track quality 100.0 %
Test CRC 667389DC
Copy CRC 667389DC
Track not present in AccurateRip database
Copy OK

Track 12

Filename J:\__EAC rips\Neil Young - Dorothy Chandler Pavilion 1971 (2022) flac\12 - Ohio (Live).wav

Peak level 97.2 %
Extraction speed 6.6 X
Track quality 100.0 %
Test CRC B864E41F
Copy CRC B864E41F
Track not present in AccurateRip database
Copy OK

Track 13

Filename J:\__EAC rips\Neil Young - Dorothy Chandler Pavilion 1971 (2022) flac\13 - See the Sky About to Rain (Live).wav

Peak level 91.8 %
Extraction speed 6.8 X
Track quality 100.0 %
Test CRC 906CCDE3
Copy CRC 906CCDE3
Track not present in AccurateRip database
Copy OK

Track 14

Filename J:\__EAC rips\Neil Young - Dorothy Chandler Pavilion 1971 (2022) flac\14 - I Am a Child (Live).wav

Peak level 97.8 %
Extraction speed 6.9 X
Track quality 100.0 %
Test CRC 6E1396CD
Copy CRC 6E1396CD
Track not present in AccurateRip database
Copy OK

Track 15

Filename J:\__EAC rips\Neil Young - Dorothy Chandler Pavilion 1971 (2022) flac\15 - Dance Dance Dance (Live).wav

Peak level 100.0 %
Extraction speed 6.7 X
Track quality 100.0 %
Test CRC F68DAF38
Copy CRC F68DAF38
Track not present in AccurateRip database
Copy OK


None of the tracks are present in the AccurateRip database

No errors occurred

End of status report

–– CUETools DB Plugin V2.1.6

[CTDB TOCID: FkdS6wVOBVzrz4jUAFQ0v6qSV9A-] found
Submit result: FkdS6wVOBVzrz4jUAFQ0v6qSV9A- has been confirmed
Track | CTDB Status
1 | (21/21) Accurately ripped
2 | (21/21) Accurately ripped
3 | (21/21) Accurately ripped
4 | (21/21) Accurately ripped
5 | (21/21) Accurately ripped
6 | (21/21) Accurately ripped
7 | (21/21) Accurately ripped
8 | (20/21) Accurately ripped
9 | (21/21) Accurately ripped
10 | (21/21) Accurately ripped
11 | (21/21) Accurately ripped
12 | (21/21) Accurately ripped
13 | (21/21) Accurately ripped
14 | (21/21) Accurately ripped
15 | (21/21) Accurately ripped


==== Log checksum 7D7F35F059748FCB93B13F76681D92C978BD7381F675472D7E4EF0449798500F ====

Thanks to the Original ripper !