Tags
Language
Tags

Michel Redolfi - Sonic Waters, Underwater Music 1979-1987 (2021)

Posted By: delpotro
Michel Redolfi - Sonic Waters, Underwater Music 1979-1987 (2021)

Michel Redolfi - Sonic Waters, Underwater Music 1979-1987 (2021)
XLD Rip | FLAC (tracks+log+.cue) - 238 Mb | MP3 CBR 320 kbps - 120 Mb | 00:52:27
Experimental Electronic, Ambient | Label: Sub Rosa

Next-level hydrophonic fire from early electronic pioneer Michel Redolfi, best known for presenting the first underwater concert in history. It's mindboggling work that imagines deep-sea sound using the glassy tones of the Synclavier digital synthesizer.

Redolfi came up with the idea of his 'Sonic Waters' project in 1979, when he was working at UC San Diego in California. The university's Center For Music Experiment had funded his project "WET", or "Water Electronically Tuned", and he took his music across the USA to similar-minded centers where he was able to perform underwater, using specially-designed equipment. In the last four decades, Redolfi has shipped this concept across the world, performing in public pools in Sydney, Paris and Venice and also in various natural sites worldwide.

Redolfi splits the music into two fields, music for fresh water, which he composed in 1981, and music for salt water, which was put together concurrently, from 1979 to 1987. To call his music fluid would be to ignore its inherent thoughtfulness; Redolfi makes big brain sounds that pull influence from our cultural understanding of water's place in the history of soundmaking. He mixes the harps and shimmering electronics you might expect to see in a classic rendition of an underwater scene with sonorous synthesized sounds that harmonize with whale song or submerged gongs. Each element warbles and vibrates as Redolfi urges us to consider the historical resonance inherent in all the colors and textures refracted into our ears.
Tracklist:
1. Overture (07:46)
2. Fluide et sonique (04:23)
3. Arabesque I (01:16)
4. Nocturnal (03:52)
5. Carillon (02:23)
6. Arabesque II (01:18)
7. La jolla cove live recording (04:11)
8. Fractions (la nouvelle Atlantide) (09:32)
9. Wind and sea (05:41)
10. Sunny afternoon at Bird Rock Beach (12:05)

X Lossless Decoder version 20211018 (154.0)

XLD extraction logfile from 2022-05-19 20:19:31 -0700

Michel Redolfi / Sonic Waters, Underwater Music 1979-1980

Used drive : HL-DT-ST BD-RE WP50NB40 (revision 1.00)
Media type : Pressed CD

Ripper mode : XLD Secure Ripper
Disable audio cache : OK for the drive with a cache less than 1375KiB
Make use of C2 pointers : NO
Read offset correction : 6
Max retry count : 20
Gap status : Analyzed, Appended (except HTOA)

TOC of the extracted CD
Track | Start | Length | Start sector | End sector
––––––––––––––––––––––––––––-
1 | 00:00:00 | 07:45:38 | 0 | 34912
2 | 07:45:38 | 04:23:08 | 34913 | 54645
3 | 12:08:46 | 01:15:47 | 54646 | 60317
4 | 13:24:18 | 03:52:20 | 60318 | 77737
5 | 17:16:38 | 02:23:21 | 77738 | 88483
6 | 19:39:59 | 01:18:30 | 88484 | 94363
7 | 20:58:14 | 04:11:07 | 94364 | 113195
8 | 25:09:21 | 09:32:11 | 113196 | 156106
9 | 34:41:32 | 05:40:70 | 156107 | 181676
10 | 40:22:27 | 12:04:59 | 181677 | 236035

AccurateRip Summary (DiscID: 0010bf07-0085f47c-6c0c4b0a)
Track 01 : OK (v2, confidence 1/1)
Track 02 : OK (v2, confidence 1/1)
Track 03 : OK (v2, confidence 1/1)
Track 04 : OK (v2, confidence 1/1)
Track 05 : OK (v2, confidence 1/1)
Track 06 : OK (v2, confidence 1/1)
Track 07 : OK (v2, confidence 1/1)
Track 08 : OK (v2, confidence 1/1)
Track 09 : OK (v2, confidence 1/1)
Track 10 : OK (v2, confidence 1/1)
->All tracks accurately ripped.

All Tracks
Album gain : -0.78 dB
Peak : 0.999969
Statistics
Read error : 0
Jitter error (maybe fixed) : 0
Retry sector count : 0
Damaged sector count : 0

Track 01
Filename : /Users/Music Files/Michel Redolfi - Sonic Waters, Underwater Music 1979-1980 (2021) [FLAC]/01 Overture.flac
Pre-gap length : 00:02:00

Track gain : -0.66 dB
Peak : 0.987946
CRC32 hash (test run) : C38796C2
CRC32 hash : C38796C2
CRC32 hash (skip zero) : 2BE8CE62
AccurateRip v1 signature : AB0A6A1E
AccurateRip v2 signature : 15B8174E
->Accurately ripped (v2, confidence 1/1)
Statistics
Read error : 0
Jitter error (maybe fixed) : 0
Retry sector count : 0
Damaged sector count : 0

Track 02
Filename : /Users/Music Files/Michel Redolfi - Sonic Waters, Underwater Music 1979-1980 (2021) [FLAC]/02 Fluide et sonique.flac

Track gain : -2.65 dB
Peak : 0.794312
CRC32 hash (test run) : 7A9CBFD8
CRC32 hash : 7A9CBFD8
CRC32 hash (skip zero) : 26C2559B
AccurateRip v1 signature : D2FEE7DD
AccurateRip v2 signature : 7A81252C
->Accurately ripped (v2, confidence 1/1)
Statistics
Read error : 0
Jitter error (maybe fixed) : 0
Retry sector count : 0
Damaged sector count : 0

Track 03
Filename : /Users/Music Files/Michel Redolfi - Sonic Waters, Underwater Music 1979-1980 (2021) [FLAC]/03 Arabesque I.flac

Track gain : 0.75 dB
Peak : 0.422668
CRC32 hash (test run) : 0A816560
CRC32 hash : 0A816560
CRC32 hash (skip zero) : A09603B7
AccurateRip v1 signature : DA4422F7
AccurateRip v2 signature : 960040F6
->Accurately ripped (v2, confidence 1/1)
Statistics
Read error : 0
Jitter error (maybe fixed) : 0
Retry sector count : 0
Damaged sector count : 0

Track 04
Filename : /Users/Music Files/Michel Redolfi - Sonic Waters, Underwater Music 1979-1980 (2021) [FLAC]/04 Nocturnal.flac

Track gain : -0.85 dB
Peak : 0.861145
CRC32 hash (test run) : F83C99A5
CRC32 hash : F83C99A5
CRC32 hash (skip zero) : 1F4315A6
AccurateRip v1 signature : 67F27939
AccurateRip v2 signature : 9E335E6D
->Accurately ripped (v2, confidence 1/1)
Statistics
Read error : 0
Jitter error (maybe fixed) : 0
Retry sector count : 0
Damaged sector count : 0

Track 05
Filename : /Users/Music Files/Michel Redolfi - Sonic Waters, Underwater Music 1979-1980 (2021) [FLAC]/05 Carillon.flac

Track gain : -3.17 dB
Peak : 0.794312
CRC32 hash (test run) : 86A8C774
CRC32 hash : 86A8C774
CRC32 hash (skip zero) : BB74EEF0
AccurateRip v1 signature : E3EBCB64
AccurateRip v2 signature : 7D23776B
->Accurately ripped (v2, confidence 1/1)
Statistics
Read error : 0
Jitter error (maybe fixed) : 0
Retry sector count : 0
Damaged sector count : 0

Track 06
Filename : /Users/Music Files/Michel Redolfi - Sonic Waters, Underwater Music 1979-1980 (2021) [FLAC]/06 Arabesque II.flac

Track gain : -2.98 dB
Peak : 0.989471
CRC32 hash (test run) : 14A7D411
CRC32 hash : 14A7D411
CRC32 hash (skip zero) : 345445E4
AccurateRip v1 signature : 5B498146
AccurateRip v2 signature : 10C0B458
->Accurately ripped (v2, confidence 1/1)
Statistics
Read error : 0
Jitter error (maybe fixed) : 0
Retry sector count : 0
Damaged sector count : 0

Track 07
Filename : /Users/Music Files/Michel Redolfi - Sonic Waters, Underwater Music 1979-1980 (2021) [FLAC]/07 La Jolla Cove Live Recordings.flac

Track gain : 6.57 dB
Peak : 0.673126
CRC32 hash (test run) : 09A22333
CRC32 hash : 09A22333
CRC32 hash (skip zero) : 4CC93E41
AccurateRip v1 signature : 59F97525
AccurateRip v2 signature : D68FBA86
->Accurately ripped (v2, confidence 1/1)
Statistics
Read error : 0
Jitter error (maybe fixed) : 0
Retry sector count : 0
Damaged sector count : 0

Track 08
Filename : /Users/Music Files/Michel Redolfi - Sonic Waters, Underwater Music 1979-1980 (2021) [FLAC]/08 Fractions (La Nouvelle Atlantide).flac

Track gain : -1.36 dB
Peak : 0.999969
CRC32 hash (test run) : 22C419DE
CRC32 hash : 22C419DE
CRC32 hash (skip zero) : 5E9E3853
AccurateRip v1 signature : 233A24FD
AccurateRip v2 signature : 547CCDDD
->Accurately ripped (v2, confidence 1/1)
Statistics
Read error : 0
Jitter error (maybe fixed) : 0
Retry sector count : 0
Damaged sector count : 0

Track 09
Filename : /Users/Music Files/Michel Redolfi - Sonic Waters, Underwater Music 1979-1980 (2021) [FLAC]/09 Wind and Sea.flac

Track gain : 2.38 dB
Peak : 0.760406
CRC32 hash (test run) : DFE7F0F3
CRC32 hash : DFE7F0F3
CRC32 hash (skip zero) : 2F9A1E8D
AccurateRip v1 signature : 90E43EC2
AccurateRip v2 signature : C4DA959C
->Accurately ripped (v2, confidence 1/1)
Statistics
Read error : 0
Jitter error (maybe fixed) : 0
Retry sector count : 0
Damaged sector count : 0

Track 10
Filename : /Users/Music Files/Michel Redolfi - Sonic Waters, Underwater Music 1979-1980 (2021) [FLAC]/10 Sunny Afternoon at Bird Rock Beach.flac

Track gain : -0.42 dB
Peak : 0.999939
CRC32 hash (test run) : 9F0E9F8D
CRC32 hash : 9F0E9F8D
CRC32 hash (skip zero) : 0276BA13
AccurateRip v1 signature : 5B5D8E13
AccurateRip v2 signature : 46E92CC1
->Accurately ripped (v2, confidence 1/1)
Statistics
Read error : 0
Jitter error (maybe fixed) : 0
Retry sector count : 0
Damaged sector count : 0

No errors occurred

End of status report

––-BEGIN XLD SIGNATURE––-
erVk5igGP2UVUlwz58ayh_NrhzoRJqdeRM9iydwT7oMuNpYWMhvwGMLTyuUROG25rLWpXEb1mzWgWu90K1sCIX.Jl0FAm0OvjDt_gxC
––-END XLD SIGNATURE––-

Thanks to the Original ripper !