Tags
Language
Tags
January 2023
Su Mo Tu We Th Fr Sa
1 2 3 4 5 6 7
8 9 10 11 12 13 14
15 16 17 18 19 20 21
22 23 24 25 26 27 28
29 30 31 1 2 3 4

McCoy Tyner & Freddie Hubbard Quartet - Live at Fabrik Hamburg 1986 (2022)

Posted By: delpotro
McCoy Tyner & Freddie Hubbard Quartet - Live at Fabrik Hamburg 1986 (2022)

McCoy Tyner & Freddie Hubbard Quartet - Live at Fabrik Hamburg 1986 (2022)
EAC Rip | FLAC (tracks+log+.cue) - 792 Mb | MP3 CBR 320 kbps - 292 Mb | 02:07:10
Jazz, Post-Bop | Label: Jazzline

In the Altonaer Fabrik in 1986, the master trumpeter Freddie Hubbard was a guest in the trio of one of the most important pianists of contemporary jazz: McCoy Tyner, whose extremely powerful attack always added percussive power of the most energetic kind to his virtuoso playing. McCoy Tyner died in March 2020, the recording from 1986 (he was 58 years old at the time) show him at the height of the unmistakable jazz expression that defined him. His piano and the enormous radiance of the Hubbard trumpet (born in the same year as Tyner in 1938, but died in 2008) are the outstanding protagonists. But the recording also features bassist Avery Sharpe, born in 1954 and with excellent acoustic and electrical credentials, as well as Louis Hayes, still today the most indestructible of all modern drummers at well over 80 years of age. Together they refine the nine titles of this two-hour concert on this truly remarkable evening of music!
Tracklist:
1. Inner Glimpse (Live) (11:15)
2. Announcemet (Live) (00:42)
3. Latino Suite (Live) (14:36)
4. Body and Soul (Live) (14:53)
5. Nero-Terra (Live) (25:47)
6. Island Birdie (Live) (17:44)
7. Round Midnight (Live) (14:43)
8. Blues For Basie (Live) (17:10)
9. What Is The Thing Called Love (Live) (10:13)

Exact Audio Copy V1.6 from 23. October 2020

EAC extraction logfile from 24. November 2022, 11:03

McCoy Tyner / Freddie Hubbard Quartet / Live At Fabrik, Hamburg 1986

Used drive : ASUS DRW-24D5MT Adapter: 1 ID: 0

Read mode : Secure
Utilize accurate stream : Yes
Defeat audio cache : Yes
Make use of C2 pointers : No

Read offset correction : 6
Overread into Lead-In and Lead-Out : No
Fill up missing offset samples with silence : Yes
Delete leading and trailing silent blocks : No
Null samples used in CRC calculations : Yes
Used interface : Native Win32 interface for Win NT & 2000
Gap handling : Appended to previous track

Used output format : User Defined Encoder
Selected bitrate : 1024 kBit/s
Quality : High
Add ID3 tag : No
Command line compressor : C:\Program Files (x86)\Exact Audio Copy\FLAC\FLAC.EXE
Additional command line options : -8 -V -T "ARTIST=%artist%" -T "TITLE=%title%" -T "ALBUM=%albumtitle%" -T "DATE=%year%" -T "TRACKNUMBER=%tracknr%" -T "GENRE=%genre%" -T "PERFORMER=%albuminterpret%" -T "COMPOSER=%composer%" %haslyrics%–tag-from-file=LYRICS="%lyricsfile%"%haslyrics% -T "ALBUMARTIST=%albumartist%" -T "DISCNUMBER=%cdnumber%" -T "TOTALDISCS=%totalcds%" -T "TOTALTRACKS=%numtracks%" -T "COMMENT=%comment%" %source% -o %dest%


TOC of the extracted CD

Track | Start | Length | Start sector | End sector
––––––––––––––––––––––––––––-
1 | 0:00.00 | 11:15.22 | 0 | 50646
2 | 11:15.22 | 0:42.59 | 50647 | 53855
3 | 11:58.06 | 14:36.10 | 53856 | 119565
4 | 26:34.16 | 14:53.14 | 119566 | 186554
5 | 41:27.30 | 25:49.00 | 186555 | 302729


Track 1

Filename W:\McCoy Tyner & Freddie Hubbard Quartet - Live At Fabrik, Hamburg 1986 [D 77100] (2022)\CD1\01 - Inner Glimpse.wav

Pre-gap length 0:00:02.00

Peak level 98.9 %
Extraction speed 1.2 X
Track quality 99.9 %
Test CRC CCF2437A
Copy CRC CCF2437A
Accurately ripped (confidence 1) [6BA39740] (AR v2)
Copy OK

Track 2

Filename W:\McCoy Tyner & Freddie Hubbard Quartet - Live At Fabrik, Hamburg 1986 [D 77100] (2022)\CD1\02 - Announcement.wav

Peak level 27.6 %
Extraction speed 0.5 X
Track quality 99.7 %
Test CRC DE5251E5
Copy CRC DE5251E5
Accurately ripped (confidence 1) [8601F558] (AR v2)
Copy OK

Track 3

Filename W:\McCoy Tyner & Freddie Hubbard Quartet - Live At Fabrik, Hamburg 1986 [D 77100] (2022)\CD1\03 - Latino Suite.wav

Peak level 98.9 %
Extraction speed 1.5 X
Track quality 99.9 %
Test CRC 051347B7
Copy CRC 051347B7
Accurately ripped (confidence 1) [67F46E06] (AR v2)
Copy OK

Track 4

Filename W:\McCoy Tyner & Freddie Hubbard Quartet - Live At Fabrik, Hamburg 1986 [D 77100] (2022)\CD1\04 - Body And Doul.wav

Peak level 99.7 %
Extraction speed 1.9 X
Track quality 100.0 %
Test CRC 6DD7B185
Copy CRC 6DD7B185
Accurately ripped (confidence 1) [5535E59F] (AR v2)
Copy OK

Track 5

Filename W:\McCoy Tyner & Freddie Hubbard Quartet - Live At Fabrik, Hamburg 1986 [D 77100] (2022)\CD1\05 - Neo-Terra.wav

Peak level 99.2 %
Extraction speed 2.2 X
Track quality 100.0 %
Test CRC AE2F1995
Copy CRC AE2F1995
Accurately ripped (confidence 1) [53F5ED00] (AR v2)
Copy OK


All tracks accurately ripped

No errors occurred

End of status report

–– CUETools DB Plugin V2.1.6

[CTDB TOCID: t909RHrhJbr.m84Sz6I5lYtbIfk-] found
Submit result: t909RHrhJbr.m84Sz6I5lYtbIfk- has been confirmed
Track | CTDB Status
1 | (13/13) Accurately ripped
2 | (13/13) Accurately ripped
3 | (13/13) Accurately ripped
4 | (13/13) Accurately ripped
5 | (13/13) Accurately ripped


==== Log checksum CA994BBD292ADEA02314B6BD93DAF9C46A090D1E8137B8D19965FF82C520C5C4 ====
Exact Audio Copy V1.6 from 23. October 2020

EAC extraction logfile from 24. November 2022, 12:05

McCoy Tyner / Freddie Hubbard Quartet / Live At Fabrik, Hamburg 1986

Used drive : ASUS DRW-24D5MT Adapter: 1 ID: 0

Read mode : Secure
Utilize accurate stream : Yes
Defeat audio cache : Yes
Make use of C2 pointers : No

Read offset correction : 6
Overread into Lead-In and Lead-Out : No
Fill up missing offset samples with silence : Yes
Delete leading and trailing silent blocks : No
Null samples used in CRC calculations : Yes
Used interface : Native Win32 interface for Win NT & 2000
Gap handling : Appended to previous track

Used output format : User Defined Encoder
Selected bitrate : 1024 kBit/s
Quality : High
Add ID3 tag : No
Command line compressor : C:\Program Files (x86)\Exact Audio Copy\FLAC\FLAC.EXE
Additional command line options : -8 -V -T "ARTIST=%artist%" -T "TITLE=%title%" -T "ALBUM=%albumtitle%" -T "DATE=%year%" -T "TRACKNUMBER=%tracknr%" -T "GENRE=%genre%" -T "PERFORMER=%albuminterpret%" -T "COMPOSER=%composer%" %haslyrics%–tag-from-file=LYRICS="%lyricsfile%"%haslyrics% -T "ALBUMARTIST=%albumartist%" -T "DISCNUMBER=%cdnumber%" -T "TOTALDISCS=%totalcds%" -T "TOTALTRACKS=%numtracks%" -T "COMMENT=%comment%" %source% -o %dest%


TOC of the extracted CD

Track | Start | Length | Start sector | End sector
––––––––––––––––––––––––––––-
1 | 0:00.00 | 17:44.16 | 0 | 79815
2 | 17:44.16 | 14:43.69 | 79816 | 146109
3 | 32:28.10 | 17:10.60 | 146110 | 223419
4 | 49:38.70 | 10:14.52 | 223420 | 269521


Track 1

Filename W:\McCoy Tyner & Freddie Hubbard Quartet - Live At Fabrik, Hamburg 1986 [D 77100] (2022)\CD2\01 - Island Birdie.wav

Pre-gap length 0:00:02.00

Peak level 99.3 %
Extraction speed 1.3 X
Track quality 100.0 %
Test CRC 9B3196F9
Copy CRC 9B3196F9
Accurately ripped (confidence 1) [38FFA792] (AR v2)
Copy OK

Track 2

Filename W:\McCoy Tyner & Freddie Hubbard Quartet - Live At Fabrik, Hamburg 1986 [D 77100] (2022)\CD2\02 - Round Midnight.wav

Peak level 98.8 %
Extraction speed 1.7 X
Track quality 100.0 %
Test CRC 48A84303
Copy CRC 48A84303
Accurately ripped (confidence 1) [EEAE1CC2] (AR v2)
Copy OK

Track 3

Filename W:\McCoy Tyner & Freddie Hubbard Quartet - Live At Fabrik, Hamburg 1986 [D 77100] (2022)\CD2\03 - Blues For Basie.wav

Peak level 99.1 %
Extraction speed 2.0 X
Track quality 100.0 %
Test CRC C6A998C4
Copy CRC C6A998C4
Accurately ripped (confidence 1) [C33A2DC0] (AR v2)
Copy OK

Track 4

Filename W:\McCoy Tyner & Freddie Hubbard Quartet - Live At Fabrik, Hamburg 1986 [D 77100] (2022)\CD2\04 - What Is This Thing Called Love.wav

Peak level 99.0 %
Extraction speed 2.2 X
Track quality 100.0 %
Test CRC EAB6CE7C
Copy CRC EAB6CE7C
Accurately ripped (confidence 1) [9C289556] (AR v2)
Copy OK


All tracks accurately ripped

No errors occurred

End of status report

–– CUETools DB Plugin V2.1.6

[CTDB TOCID: cBBCUi6w_JvOVsvmyYxIx51wSlI-] found
Submit result: cBBCUi6w_JvOVsvmyYxIx51wSlI- has been confirmed
Track | CTDB Status
1 | (12/12) Accurately ripped
2 | (12/12) Accurately ripped
3 | (12/12) Accurately ripped
4 | (12/12) Accurately ripped


==== Log checksum 102ECBB13B33AF1805F0E5AC29B36D93410176BCE713EC0AF5D87C5E70993D7F ====

Thanks to the Original ripper !