Tags
Language
Tags

Liars - The Apple Drop (2021)

Posted By: delpotro
Liars - The Apple Drop (2021)

Liars - The Apple Drop (2021)
EAC Rip | FLAC (tracks+log+.cue) | 00:43:04 | 255 Mb
Indie Rock, Art Rock | Label: Mute Records

The Apple Drop is the 10th studio album from Liars. Recorded in Australia with avant-garde jazz drummer Laurence Pike and multi-instrumentalist Cameron Deyell, mixing their raw, organic live instrumentation with Angus’s solo tinkering at the computer, resulting in an album that blurs boundaries between the archetypal band structure and experimental electronics. The album feels distinctly and recognisably Liars, yet also fresh and singular. Rich textures overlap with engulfing ambience, before giving way to eruptive blasts of noise, crackling electronics and thrashing drums.
Tracklist:
1. The Start (03:51)
2. Slow and Turn Inward (03:36)
3. Sekwar (04:34)
4. Big Appetite (05:16)
5. From What the Never Was (04:14)
6. Star Search (03:48)
7. My Pulse to Ponder (03:03)
8. Leisure War (03:26)
9. King of the Crooks (03:45)
10. Acid Crop (04:42)
11. New Planets New Undoings (02:43)

Exact Audio Copy V1.6 from 23. October 2020

EAC extraction logfile from 22. May 2022, 22:50

Liars / The Apple Drop

Used drive : HL-DT-STDVDRAM GP60NB60 Adapter: 1 ID: 0

Read mode : Secure
Utilize accurate stream : Yes
Defeat audio cache : Yes
Make use of C2 pointers : No

Read offset correction : 6
Overread into Lead-In and Lead-Out : No
Fill up missing offset samples with silence : Yes
Delete leading and trailing silent blocks : No
Null samples used in CRC calculations : Yes
Used interface : Native Win32 interface for Win NT & 2000
Gap handling : Appended to previous track

Used output format : User Defined Encoder
Selected bitrate : 896 kBit/s
Quality : High
Add ID3 tag : No
Command line compressor : C:\Program Files\Exact Audio Copy\Flac\flac.exe
Additional command line options : -8 -V -T "ARTIST=%artist%" -T "TITLE=%title%" -T "ALBUM=%albumtitle%" -T "DATE=%year%" -T "TRACKNUMBER=%tracknr%" -T "GENRE=%genre%" -T "PERFORMER=%albuminterpret%" -T "COMPOSER=%composer%" -T "ALBUMARTIST=%albumartist%" -T "DISCNUMBER=%cdnumber%" -T "TOTALDISCS=%totalcds%" -T "TOTALTRACKS=%numtracks%" -T "COMMENT=%comment%" %source% -o %dest%


TOC of the extracted CD

Track | Start | Length | Start sector | End sector
––––––––––––––––––––––––––––-
1 | 0:00.00 | 3:51.62 | 0 | 17386
2 | 3:51.62 | 3:36.57 | 17387 | 33643
3 | 7:28.44 | 4:34.47 | 33644 | 54240
4 | 12:03.16 | 5:16.31 | 54241 | 77971
5 | 17:19.47 | 4:14.46 | 77972 | 97067
6 | 21:34.18 | 3:48.34 | 97068 | 114201
7 | 25:22.52 | 3:03.18 | 114202 | 127944
8 | 28:25.70 | 3:26.03 | 127945 | 143397
9 | 31:51.73 | 3:45.46 | 143398 | 160318
10 | 35:37.44 | 4:42.67 | 160319 | 181535
11 | 40:20.36 | 2:43.41 | 181536 | 193801


Track 1

Filename C:\EAC\Liars - 2021 - The Apple Drop [CD-FLAC]\01. The Start.wav

Pre-gap length 0:00:02.00

Peak level 99.2 %
Extraction speed 1.1 X
Track quality 100.0 %
Test CRC E25F16EC
Copy CRC E25F16EC
Accurately ripped (confidence 1) [AB747F5C] (AR v2)
Copy OK

Track 2

Filename C:\EAC\Liars - 2021 - The Apple Drop [CD-FLAC]\02. Slow and Turn Inward.wav

Peak level 99.0 %
Extraction speed 0.8 X
Track quality 99.9 %
Test CRC E0A6DEA2
Copy CRC E0A6DEA2
Accurately ripped (confidence 1) [65745A50] (AR v2)
Copy OK

Track 3

Filename C:\EAC\Liars - 2021 - The Apple Drop [CD-FLAC]\03. Sekwar.wav

Peak level 98.9 %
Extraction speed 1.4 X
Track quality 100.0 %
Test CRC A4BD7F69
Copy CRC A4BD7F69
Accurately ripped (confidence 1) [2F4AB03C] (AR v2)
Copy OK

Track 4

Filename C:\EAC\Liars - 2021 - The Apple Drop [CD-FLAC]\04. Big Appetite.wav

Peak level 99.4 %
Extraction speed 1.2 X
Track quality 99.9 %
Test CRC 8D0E7C4C
Copy CRC 8D0E7C4C
Accurately ripped (confidence 1) [75C617AD] (AR v2)
Copy OK

Track 5

Filename C:\EAC\Liars - 2021 - The Apple Drop [CD-FLAC]\05. From What the Never Was.wav

Peak level 98.9 %
Extraction speed 1.2 X
Track quality 99.9 %
Test CRC 803721D8
Copy CRC 803721D8
Accurately ripped (confidence 1) [CAE6F3DD] (AR v2)
Copy OK

Track 6

Filename C:\EAC\Liars - 2021 - The Apple Drop [CD-FLAC]\06. Star Search.wav

Peak level 98.9 %
Extraction speed 1.7 X
Track quality 100.0 %
Test CRC 9D47E840
Copy CRC 9D47E840
Accurately ripped (confidence 1) [DDF5A8ED] (AR v2)
Copy OK

Track 7

Filename C:\EAC\Liars - 2021 - The Apple Drop [CD-FLAC]\07. My Pulse to Ponder.wav

Peak level 99.3 %
Extraction speed 1.1 X
Track quality 99.9 %
Test CRC 593A10AC
Copy CRC 593A10AC
Accurately ripped (confidence 1) [62DCD61A] (AR v2)
Copy OK

Track 8

Filename C:\EAC\Liars - 2021 - The Apple Drop [CD-FLAC]\08. Leisure War.wav

Peak level 99.4 %
Extraction speed 1.8 X
Track quality 100.0 %
Test CRC 9F78B0DA
Copy CRC 9F78B0DA
Accurately ripped (confidence 1) [0F2A745C] (AR v2)
Copy OK

Track 9

Filename C:\EAC\Liars - 2021 - The Apple Drop [CD-FLAC]\09. King of the Crooks.wav

Peak level 98.9 %
Extraction speed 1.9 X
Track quality 100.0 %
Test CRC 7AA24658
Copy CRC 7AA24658
Accurately ripped (confidence 1) [D9962DFF] (AR v2)
Copy OK

Track 10

Filename C:\EAC\Liars - 2021 - The Apple Drop [CD-FLAC]\10. Acid Crop.wav

Peak level 98.9 %
Extraction speed 2.0 X
Track quality 100.0 %
Test CRC 618362CD
Copy CRC 618362CD
Accurately ripped (confidence 1) [81B110C5] (AR v2)
Copy OK

Track 11

Filename C:\EAC\Liars - 2021 - The Apple Drop [CD-FLAC]\11. New Planets New Undoings.wav

Peak level 98.9 %
Extraction speed 1.9 X
Track quality 100.0 %
Test CRC 41A7CA9A
Copy CRC 41A7CA9A
Accurately ripped (confidence 1) [71FB7706] (AR v2)
Copy OK


All tracks accurately ripped

No errors occurred

End of status report

==== Log checksum 24421F51394495315D2E9E37BC5E0C1A9A5E78D50EF55C5D27603F46B3476703 ====

Thanks to the Original ripper !