Subcategories

Lee Morgan - The Last Session (1971) {Blue Note}

Posted By: ruskaval
Lee Morgan - The Last Session (1971) {Blue Note}

Lee Morgan - The Last Session (1971) {Blue Note}
EAC rip (secure mode) | FLAC+CUE+LOG -> 429 Mb | MP3 @320 -> 151 Mb
Full Artwork @ 300 dpi (png) -> 40 Mb
© 1998 Capitol / Blue Note | 7243 4 93401 2 1
Jazz / Bop / Hard Bop / Trumpet


Lee Morgan - The Last Session (1971) {Blue Note}

The Last Session is the fascinating final chapter in the recording career of Lee Morgan (1938-1972). Formerly a double album set known simply as Lee Morgan, this September 1971 date captures the trumpeter in a most unusual octet setting with seemingly opposing personalities.
Personnel: Lee Morgan: trumpet, fluegelhorn; Grachan Moncur III: trombone; Bobbi Humphrey: flute; Billy Harper: tenor saxophone, alto flute; Harold Mabern: piano, electric piano; Jymie Merritt: electric bass; Reggie Workman: bass, percussion; Freddy Waits: drums, recorder.

tracklist:
1. Capra Black
2. In What Direction Are You Heading
3. Angela
4. Croquet Ballet
5. Inner Passions Out

Lee Morgan - The Last Session (1971) {Blue Note}

Exact Audio Copy V0.99 prebeta 5 from 4. May 2009

EAC extraction logfile from 6. December 2009, 12:38

Lee Morgan / The Last Session

Used drive : TSSTcorpCD/DVDW TS-H552L Adapter: 3 ID: 0

Read mode : Secure
Utilize accurate stream : Yes
Defeat audio cache : Yes
Make use of C2 pointers : No

Read offset correction : 6
Overread into Lead-In and Lead-Out : No
Fill up missing offset samples with silence : Yes
Delete leading and trailing silent blocks : No
Null samples used in CRC calculations : Yes
Used interface : Native Win32 interface for Win NT & 2000
Gap handling : Appended to previous track

Used output format : User Defined Encoder
Selected bitrate : 1024 kBit/s
Quality : High
Add ID3 tag : No
Command line compressor : C:\Program Files\FLAC\flac.exe
Additional command line options : -6 -V -T "ARTIST=%a" -T "TITLE=%t" -T "ALBUM=%g" -T "DATE=%y" -T "TRACKNUMBER=%n" -T "GENRE=%m" -T "COMMENT=EAC FLAC -6" %s


TOC of the extracted CD

Track | Start | Length | Start sector | End sector
––––––––––––––––––––––––––––-
1 | 0:00.00 | 15:34.67 | 0 | 70116
2 | 15:34.67 | 16:23.03 | 70117 | 143844
3 | 31:57.70 | 6:27.65 | 143845 | 172934
4 | 38:25.60 | 11:00.45 | 172935 | 222479
5 | 49:26.30 | 17:34.70 | 222480 | 301599


Track 1

Filename C:\Lee Morgan - The Last Session (1971) {Blue Note}\01 - Capra Black.wav

Pre-gap length 0:00:02.00

Peak level 97.3 %
Track quality 100.0 %
Test CRC 3218C6C8
Copy CRC 3218C6C8
Accurately ripped (confidence 3) [8AF2246B]
Copy OK

Track 2

Filename C:\Lee Morgan - The Last Session (1971) {Blue Note}\02 - In What Direction Are You Headed .wav

Pre-gap length 0:00:02.00

Peak level 98.2 %
Track quality 100.0 %
Test CRC C140C0E8
Copy CRC C140C0E8
Accurately ripped (confidence 3) [3665A92E]
Copy OK

Track 3

Filename C:\Lee Morgan - The Last Session (1971) {Blue Note}\03 - Angela.wav

Pre-gap length 0:00:02.03

Peak level 96.5 %
Track quality 99.9 %
Test CRC F8E2090E
Copy CRC F8E2090E
Accurately ripped (confidence 3) [88EBD245]
Copy OK

Track 4

Filename C:\Lee Morgan - The Last Session (1971) {Blue Note}\04 - Croquet Ballet.wav

Pre-gap length 0:00:03.28

Peak level 98.0 %
Track quality 100.0 %
Test CRC 2EDA1DA7
Copy CRC 2EDA1DA7
Accurately ripped (confidence 3) [3642E4E6]
Copy OK

Track 5

Filename C:\Lee Morgan - The Last Session (1971) {Blue Note}\05 - Inner Passions Out.wav

Pre-gap length 0:00:02.48

Peak level 96.9 %
Track quality 100.0 %
Test CRC 7E13FDCC
Copy CRC 7E13FDCC
Accurately ripped (confidence 3) [ADB0ED26]
Copy OK


All tracks accurately ripped

No errors occurred

End of status report

Please don't post the links and passes in your comments…

Linkz