Marc Lavoine - Volume 10 (2009)

Posted By: L@ter
Marc Lavoine - Volume 10 (2009)

Marc Lavoine - Volume 10 (2009)
EAC Rip | FLAC, IMG+CUE, LOG | 283 MB | 44,17 Min | Covers
Label: Mercury 2009 | Chanson / French Pop | 11 Tracks | RAR 3% Rec.

Marc Lavoine is a French singer born near Paris. He was labeled a heart throb at the beginning of his career and remains popular. He released his first album, Le Parking des Anges, in 1985 with his song "Elle a les yeux revolver" as a favorite among teens. In 1987, Lavoine released his second album Fabriqué. His single, "Qu'est-ce que t'es belle", was a duet with Les Rita Mitsouko leader Catherine Ringer. His third album Les Amours Du Dimanche was released in 1989, which sold 300,000 albums. Wikipedia
Tracklist

01. Rue des Acacias
02. Reviens mon amour
03. Demande-moi
04. La Semaine prochaine
05. La grande amour (Wiith Valérie Lemarcier)
06. Les dunes blanches
07. Les rêves américains
08. Lentement (With Yasmine Lavoine)
09. Je n'ai plus peur de rien
10. Quand je suis seul
11. Je rêve de ton cul


Exact Audio Copy V0.99 prebeta 5 from 4. May 2009

EAC extraction logfile from 27. November 2010, 22:31

Marc Lavoine / Volume 10

Used drive : HL-DT-STDVD-RAM GH22NP20 Adapter: 1 ID: 0

Read mode : Secure
Utilize accurate stream : Yes
Defeat audio cache : Yes
Make use of C2 pointers : No

Read offset correction : 102
Overread into Lead-In and Lead-Out : No
Fill up missing offset samples with silence : Yes
Delete leading and trailing silent blocks : No
Null samples used in CRC calculations : Yes
Used interface : Native Win32 interface for Win NT & 2000

Used output format : User Defined Encoder
Selected bitrate : 768 kBit/s
Quality : High
Add ID3 tag : No
Command line compressor : C:\Program Files\Exact Audio Copy\FLAC\FLAC.EXE
Additional command line options : -6 -V -T "ARTIST=%a" -T "TITLE=%t" -T "ALBUM=%g" -T "DATE=%y" -T "TRACKNUMBER=%n" -T "GENRE=%m" -T "COMMENT=%e" %s -o %d


TOC of the extracted CD

Track | Start | Length | Start sector | End sector
––––––––––––––––––––––––––––-
1 | 0:00.00 | 3:57.74 | 0 | 17848
2 | 3:57.74 | 4:39.16 | 17849 | 38789
3 | 8:37.15 | 3:57.37 | 38790 | 56601
4 | 12:34.52 | 3:47.43 | 56602 | 73669
5 | 16:22.20 | 4:28.47 | 73670 | 93816
6 | 20:50.67 | 4:27.64 | 93817 | 113905
7 | 25:18.56 | 4:08.27 | 113906 | 132532
8 | 29:27.08 | 3:39.60 | 132533 | 149017
9 | 33:06.68 | 2:44.73 | 149018 | 161390
10 | 35:51.66 | 4:42.45 | 161391 | 182585
11 | 40:34.36 | 3:43.18 | 182586 | 199328


Range status and errors

Selected range

Filename C:\Marc Lavoine - Volume 10.wav

Peak level 100.0 %
Range quality 100.0 %
Copy CRC 784EE23A
Copy OK

No errors occurred

End of status report


REM GENRE "Chansons / French Pop"
REM DATE 2009
REM DISCID A30A610B
REM COMMENT "ExactAudioCopy v0.99pb5"
PERFORMER "Marc Lavoine"
TITLE "Volume 10"
FILE "Marc Lavoine - Volume 10.flac" WAVE
TRACK 01 AUDIO
TITLE "Rue Des Acacias"
PERFORMER "Marc Lavoine"
INDEX 01 00:00:00
TRACK 02 AUDIO
TITLE "Reviens Mon Amour"
PERFORMER "Marc Lavoine"
INDEX 01 03:57:74
TRACK 03 AUDIO
TITLE "Demande-Moi"
PERFORMER "Marc Lavoine"
INDEX 01 08:37:15
TRACK 04 AUDIO
TITLE "La Semaine Prochaine"
PERFORMER "Marc Lavoine"
INDEX 01 12:34:52
TRACK 05 AUDIO
TITLE "La Grande Amour (En Duo Avec Valérie Lemarcier)"
PERFORMER "Marc Lavoine"
INDEX 01 16:22:20
TRACK 06 AUDIO
TITLE "Les Dunes Blanches"
PERFORMER "Marc Lavoine"
INDEX 01 20:50:67
TRACK 07 AUDIO
TITLE "Les Rêves Américains"
PERFORMER "Marc Lavoine"
INDEX 01 25:18:56
TRACK 08 AUDIO
TITLE "Lentement (En Duo Avec Yasmine Lavoine)"
PERFORMER "Marc Lavoine"
INDEX 01 29:27:08
TRACK 09 AUDIO
TITLE "Je N'ai Plus Peur De Rien"
PERFORMER "Marc Lavoine"
INDEX 01 33:06:68
TRACK 10 AUDIO
TITLE "Quand Je Suis Seul"
PERFORMER "Marc Lavoine"
INDEX 01 35:51:66
TRACK 11 AUDIO
TITLE "Je Rêve De Ton Cul"
PERFORMER "Marc Lavoine"
INDEX 01 40:34:36