Subcategories

Greg Graffin - American Lesion (1997) [Original US pressing] RESTORED

Posted By: Rehabilly
Greg Graffin - American Lesion (1997) [Original US pressing] RESTORED

Greg Graffin - American Lesion (1997)
FLAC+CUE+LOG or MP3 CBR 320 | 37:42 min | 237 or 87 MB
Folk Rock / Alternative Pop | Label: Atlantic Recording Corp. # 83067-2

Gregory Walter Graffin is an American rock musician, college professor, and author. He is most recognized as the lead vocalist and songwriter of the noted Los Angeles band Bad Religion, which he co-founded in 1979 and is the band's only constant member. American Lesion is his first solo album. Like Bad Religion's album "Into the Unknown", this album is a massive departure for Graffin, whose songs generally revolve around loud guitars and harmonies. American Lesion for the most part features Graffin's voice alone, and each song is based around an acoustic guitar or piano rather than electric guitars… Almost flawless.



The lyrical content can also be seen as a departure for Graffin. In most Bad Religion songs, he deals with subjects such as mass globalisation or world pollution. The songs on American Lesion are much more personal; the songs were apparently written during the breakup of his marriage, making the album very sentimental.

Greg Graffin - American Lesion (1997) [Original US pressing] RESTORED

Bad Religion leader Greg Graffin had a bunch of songs he'd composed that didn't really fit his explosive, melodic punk band, given the personal subject matter in the tunes. So he recorded them by himself in the home studio he usually uses for demos. The end product is a small stunner. The bulk of it is Graffin alone with either a piano or an acoustic guitar and overdubbed drums (his playing is actually adequate). Here's an LP so different from Bad Religion that, with its American Lesion moniker, you wouldn't know who was behind it if it weren't for Graffin's familiar, full, resolute voice. The overwhelming flavor is that of '70-'73 Todd Rundgren (typified by the smash hits "Hello It's Me" and "I Saw the Light"). Add a splash of Carole King's Tapestry and even a hint of Gordon Lightfoot on one song ("The Fault Line"), and you've got a gentle, up-close portrait, far removed from Graffin's band. The challenge, then, is to make such a personal, sensitive record as compelling as Bad Religion's explosive firepower, foregoing the thoughtful social protest lyrics. Graffin deftly manages this difficult transition of personas like Scrooge after his ghosts have gone. Somehow he remains intense just under the surface, even in such hushed tones. A more revealing title would be "Scenes From a Divorce." Indeed, it's hard to think of a more intimate portrait of a marriage lost's emotional kerpow. Graffin's own marriage was dying when he composed this material, yet he expresses his feelings, thoughts, and reactions straight-up without indulgence and even helplessly reserves some blame for himself. American Lesion is a silent, somber nightmare, a reality for millions of broken families. This is where art meets life, and it's a hard row to hoe sometimes.

~ Jack Rabid, all media guide
Tracklist:

01. Opinion
02. Fate's Cruel Hand
03. Predicament
04. The Fault Line
05. When I Fail
06. Cease
07. Maybe She Will
08. The Elements
09. In The Mirror
10. Back To Earth

Exact Audio Copy V1.0 beta 1 from 15. November 2010

EAC extraction logfile from 3. May 2012, 1:17

Greg Graffin / American Lesion

Used drive : PIONEER DVD-RW DVR-219L Adapter: 9 ID: 0

Read mode : Secure
Utilize accurate stream : Yes
Defeat audio cache : Yes
Make use of C2 pointers : No

Read offset correction : 6
Overread into Lead-In and Lead-Out : No
Fill up missing offset samples with silence : Yes
Delete leading and trailing silent blocks : No
Null samples used in CRC calculations : Yes
Used interface : Installed external ASPI interface

Used output format : Internal WAV Routines
Sample format : 44.100 Hz; 16 Bit; Stereo


TOC of the extracted CD

Track | Start | Length | Start sector | End sector
––––––––––––––––––––––––––––-
1 | 0:00.32 | 3:14.73 | 32 | 14654
2 | 3:15.30 | 4:43.50 | 14655 | 35929
3 | 7:59.05 | 3:13.32 | 35930 | 50436
4 | 11:12.37 | 3:03.48 | 50437 | 64209
5 | 14:16.10 | 3:41.35 | 64210 | 80819
6 | 17:57.45 | 4:33.15 | 80820 | 101309
7 | 22:30.60 | 4:28.67 | 101310 | 121476
8 | 26:59.52 | 3:50.28 | 121477 | 138754
9 | 30:50.05 | 2:43.37 | 138755 | 151016
10 | 33:33.42 | 4:08.48 | 151017 | 169664


Range status and errors

Selected range

Filename C:\_www.AvaxHome.ru\Greg Graffin\1997 - American Lesion\Greg Graffin - American Lesion (83067-2).wav

Peak level 100.0 %
Extraction speed 0.8 X
Range quality 100.0 %
Test CRC 88E39A57
Copy CRC 88E39A57
Copy OK

No errors occurred


AccurateRip summary

Track 1 accurately ripped (confidence 4) [D5951A61]
Track 2 accurately ripped (confidence 4) [AD029E6A]
Track 3 accurately ripped (confidence 4) [910234EB]
Track 4 accurately ripped (confidence 4) [FC5BD4BB]
Track 5 accurately ripped (confidence 4) [C40D66D2]
Track 6 accurately ripped (confidence 4) [D2C3C499]
Track 7 accurately ripped (confidence 4) [0AFEB5B8]
Track 8 accurately ripped (confidence 4) [97C91874]
Track 9 accurately ripped (confidence 4) [FEB48355]
Track 10 accurately ripped (confidence 4) [30F2881F]

All tracks accurately ripped

End of status report

==== Log checksum 405AC80402BAD9924DA38F01FAB5528B65E58B4ECA404A43BE562AAD8C818859 ====


all songs composed, performed, produced and mixed by Greg Graffin
Recorded at Polypterus Studio, Inthaca, February - July 2007.
Mastered by George Marino at Sterling Sound, NYC.

Release Date: November 4, 1997
Label: Atlantic Recording Corporation
Catalog No.: 83067-2

The Right choice*
https://www.bigfile.to/file/CxYRs3Ps3RcJ/BAR197GRA854FC.rar

lossy.mp3
https://www.bigfile.to/file/kJy6AxENAb5H/BAR197GRA20GC.rar


* EAC Image, embedded cuesheet & more, foobar2000 ready, etc.
(all CUEs, LOGs and other technical info includes in the internal "CD_Support" archive)

Archives with FLAC includes complete PNG artwork / Archives with MP3 includes complete JPG artwork
______________________