Subcategories

Desmond Child And Rouge - Desmond Child & Rouge (1979) [CD Reissue '2004]

Posted By: perfecta
Desmond Child And Rouge - Desmond Child & Rouge (1979) [CD Reissue '2004]

Desmond Child and Rouge - Desmond Child & Rouge (1979) [CD '2004]
EAC-FLAC Image with CUE & LOG - 228 MB | Full Scans | MP3 CBR 320 Kbps - 100 MB
Pop / Rock / Soul | TT - 33:27 minutes | Label: Lemon Recordings U.K. | Cat. # CD LEM 47

Where would the rock world be without Desmond Child? He has in recent years, written №1 hits for Bon Jovi, Cher, Aerosmith, Kiss and so many more. It was originally released in 1979 and can quite honestly be deemed a forgotten classic. This album has never ever been released on CD anywhere before ever. The album strongly features Paul Schaffer (David Letterman's band leader) and Paul Stanley of rock legends Kiss.

allmusic.com says: If the goal of this self-titled debut album by Desmond Child & Rouge was to give the listener a bittersweet tour of New York's mean streets, they did a marvelous job. This album paints a vivid picture of urban life, and the group brilliantly captures the highs and lows of life in the big city. Both musically and lyrically, this album is a gem. The group's soul-influenced style of pop/rock is quite distinctive, and the characters in Child's songs are so New York inspired that some reviewers compared him to Billy Joel. But Child tends to have more of an inner-city influence – on treasures like "Westside Pow Wow" and "City in Heat" he speaks of gang members and graffiti artists and describes inner-city life with the type of insights you would expect from a hip-hopper. "Otti" is a poignant ode to a 19-year-old street kid who is a master of skateboarding but unsuccessful in romance, while "The Fight" (which Child co-wrote with David Landau and Kiss' Paul Stanley) takes a look at the gritty world of boxing. And through it all, Child's affection for New York comes through – even though he isn't blind to the city's faults. Had justice prevailed, this LP would have been a major hit. But it seemed like Desmond Child & Rouge was simply too creative, too visionary for its own good.

Desmond Child And Rouge - Desmond Child & Rouge (1979) [CD Reissue '2004]

Tracks:

01. Westside Pow Wow
02. Our Love Is Insane
03. Lovin' Your Love
04. The Fight
05. Main Man
06. City In Heat
07. Lazy Love
08. Otti
09. Givin' It To My Love

Produced by Richard Landis. Arranged by Charlie Calello.
Mastered by Ken Perry at Abbey Road Studios, London (2004).

Exact Audio Copy V0.99 prebeta 5 from 4. May 2009

Отчёт EAC об извлечении, выполненном 4. февраля 2010, 8:52

Desmond Child & Rouge / Desmond Child & Rouge

Дисковод: PLEXTOR DVDR PX-810SA Adapter: 1 ID: 0

Режим чтения : Достоверность
Использование точного потока : Да
Отключение кэша аудио : Да
Использование указателей C2 : Нет

Коррекция смещения при чтении : 48
Способность читать области Lead-in и Lead-out : Нет
Заполнение пропущенных сэмплов тишиной : Да
Удаление блоков с тишиной в начале и конце : Нет
При вычислениях CRC использовались нулевые сэмплы : Да
Интерфейс : Встроенный Win32-интерфейс для Win NT/2000

Выходной формат : Пользовательский кодировщик
Выбранный битрейт : 768 kBit/s
Качество : Высокий
Добавление ID3-тэга : Да
Утилита сжатия : C:\Program Files\Exact Audio Copy\wapet.exe
Дополнительные параметры : %d -t "Artist=%a" -t "Releaser=% wwphil" -t "Album=%g" -t "Year=%y" -t "Track=%n" -t "Genre=%m" mac.exe %s %d -c2000


TOC извлечённого CD

Трек | Старт | Длительность | Начальный сектор | Конечный сектор
––––––––––––––––––––––––––––––––––-
1 | 0:00.01 | 3:31.00 | 1 | 15825
2 | 3:31.01 | 5:20.30 | 15826 | 39855
3 | 8:51.31 | 3:12.25 | 39856 | 54280
4 | 12:03.56 | 4:21.32 | 54281 | 73887
5 | 16:25.13 | 3:33.06 | 73888 | 89868
6 | 19:58.19 | 3:54.41 | 89869 | 107459
7 | 23:52.60 | 3:27.24 | 107460 | 123008
8 | 27:20.09 | 3:07.44 | 123009 | 137077
9 | 30:27.53 | 2:59.46 | 137078 | 150548


Характеристики диапазона извлечения и сообщения об ошибках

Выбранный диапазон

Имя файла D:\Desmond Child & Rouge - Desmond Child & Rouge\Desmond Child & Rouge - Desmond Child & Rouge.wav

Пиковый уровень 82.2 %
Качество диапазона 99.9 %
CRC теста A8F4948A
CRC копии A8F4948A
Копирование… OK

Ошибок не произошло


AccurateRip: сводка

Трек 1 точное извлечение (доверие 2) [DF7DDEBF]
Трек 2 точное извлечение (доверие 2) [AAE1DBA1]
Трек 3 точное извлечение (доверие 2) [C11689D4]
Трек 4 точное извлечение (доверие 2) [A11C7EDD]
Трек 5 точное извлечение (доверие 2) [9F0BF12D]
Трек 6 точное извлечение (доверие 2) [121F3D95]
Трек 7 точное извлечение (доверие 2) [96BF0E66]
Трек 8 точное извлечение (доверие 2) [08F31D70]
Трек 9 точное извлечение (доверие 2) [D2C2FA82]

Все треки извлечены точно

Конец отчёта


Thanks to the original ripper!
Dynamic Range: 12.

FLAC lossless | MP3 320

All Covers included.