Tags
Language
Tags

Celtic Woman - Postcards From Ireland (2021)

Posted By: delpotro
Celtic Woman - Postcards From Ireland (2021)

Celtic Woman - Postcards From Ireland (2021)
EAC Rip | FLAC (tracks+log+.cue) | 00:51:00 | 304 Mb
Folk, Cletic, New Age, Female Vocal | Label: Manhattan Records

Celtic Woman's new album represents the sentiment they would like to share with their fans around the world. One of love, hope and expectation as the world looks towards getting back together again. What better way to express these wishes than to write and send a postcard, but this postcard is written with the music and songs from Celtic Woman's latest album. Postcards from Ireland features 13 brand-new songs and is the group's first new studio album since 2018's Ancient Land.
Tracklist:
1. The Dawning of the Day (03:54)
2. Bonny Portmore (04:00)
3. Mise Éire (03:52)
4. Wild Mountain Thyme (03:56)
5. Beeswing (feat. The Longest Johns) (04:48)
6. Down by the Salley Gardens (04:10)
7. Where Sheep May Safely Graze (03:58)
8. Angel (04:35)
9. The Lakes of Pontchartrain (03:56)
10. May It Be (03:11)
11. The Calm of the Day / The Banshee (02:57)
12. The Galway Shawl (04:04)
13. Black Is the Colour (2021 Version) (03:33)

Exact Audio Copy V1.6 from 23. October 2020

EAC extraction logfile from 23. June 2022, 15:38

Celtic Woman / Postcards From Ireland

Used drive : ASUS BW-16D1X-U Adapter: 1 ID: 1

Read mode : Secure
Utilize accurate stream : Yes
Defeat audio cache : Yes
Make use of C2 pointers : No

Read offset correction : 6
Overread into Lead-In and Lead-Out : No
Fill up missing offset samples with silence : Yes
Delete leading and trailing silent blocks : No
Null samples used in CRC calculations : Yes
Used interface : Native Win32 interface for Win NT & 2000
Gap handling : Appended to previous track

Used output format : User Defined Encoder
Selected bitrate : 1024 kBit/s
Quality : High
Add ID3 tag : No
Command line compressor : C:\\Program Files (x86)\Exact Audio Copy\Flac/Flac.exe
Additional command line options : -8 -V -T "ARTIST=%artist%" -T "TITLE=%title%" -T "ALBUM=%albumtitle%" -T "DATE=%year%" -T "TRACKNUMBER=%tracknr%" -T "GENRE=%genre%" -T "PERFORMER=%albuminterpret%" -T "COMPOSER=%composer%" %haslyrics%–tag-from-file=LYRICS="%lyricsfile%"%haslyrics% -T "ALBUMARTIST=%albumartist%" -T "DISCNUMBER=%cdnumber%" -T "TOTALDISCS=%totalcds%" -T "TOTALTRACKS=%numtracks%" -T "COMMENT=%comment%" %source% -o %dest%


TOC of the extracted CD

Track | Start | Length | Start sector | End sector
––––––––––––––––––––––––––––-
1 | 0:00.00 | 3:54.18 | 0 | 17567
2 | 3:54.18 | 4:00.31 | 17568 | 35598
3 | 7:54.49 | 3:52.57 | 35599 | 53055
4 | 11:47.31 | 3:56.41 | 53056 | 70796
5 | 15:43.72 | 4:48.39 | 70797 | 92435
6 | 20:32.36 | 4:10.38 | 92436 | 111223
7 | 24:42.74 | 3:58.71 | 111224 | 129144
8 | 28:41.70 | 4:35.49 | 129145 | 149818
9 | 33:17.44 | 3:56.08 | 149819 | 167526
10 | 37:13.52 | 3:11.57 | 167527 | 181908
11 | 40:25.34 | 2:57.17 | 181909 | 195200
12 | 43:22.51 | 4:04.11 | 195201 | 213511
13 | 47:26.62 | 3:33.58 | 213512 | 229544


Track 1

Filename Z:\home\albicant\Music\compact_disc\music\Celtic Woman - Postcards From Ireland (2021) [CD FLAC]\01 - The Dawning of the Day.wav

Pre-gap length 0:00:02.00

Peak level 97.7 %
Extraction speed 4.3 X
Track quality 100.0 %
Test CRC 5C562B46
Copy CRC 5C562B46
Accurately ripped (confidence 5) [4EA70E53] (AR v2)
Copy OK

Track 2

Filename Z:\home\albicant\Music\compact_disc\music\Celtic Woman - Postcards From Ireland (2021) [CD FLAC]\02 - Bonny Portmore.wav

Peak level 97.5 %
Extraction speed 4.8 X
Track quality 100.0 %
Test CRC 21D5E27D
Copy CRC 21D5E27D
Accurately ripped (confidence 5) [3A507041] (AR v2)
Copy OK

Track 3

Filename Z:\home\albicant\Music\compact_disc\music\Celtic Woman - Postcards From Ireland (2021) [CD FLAC]\03 - Mise Eire.wav

Peak level 97.4 %
Extraction speed 4.3 X
Track quality 99.9 %
Test CRC 65E998DF
Copy CRC 65E998DF
Accurately ripped (confidence 5) [A5E5B2A2] (AR v2)
Copy OK

Track 4

Filename Z:\home\albicant\Music\compact_disc\music\Celtic Woman - Postcards From Ireland (2021) [CD FLAC]\04 - Wild Mountain Thyme.wav

Peak level 97.7 %
Extraction speed 5.6 X
Track quality 100.0 %
Test CRC 8FB03BFD
Copy CRC 8FB03BFD
Accurately ripped (confidence 5) [3A934ED8] (AR v2)
Copy OK

Track 5

Filename Z:\home\albicant\Music\compact_disc\music\Celtic Woman - Postcards From Ireland (2021) [CD FLAC]\05 - Beeswing featuring The Longest Johns.wav

Peak level 82.9 %
Extraction speed 5.1 X
Track quality 99.9 %
Test CRC BDC4AB66
Copy CRC BDC4AB66
Accurately ripped (confidence 5) [343373A7] (AR v2)
Copy OK

Track 6

Filename Z:\home\albicant\Music\compact_disc\music\Celtic Woman - Postcards From Ireland (2021) [CD FLAC]\06 - Down By The Salley Gardens.wav

Peak level 97.5 %
Extraction speed 6.4 X
Track quality 100.0 %
Test CRC 44FB726C
Copy CRC 44FB726C
Accurately ripped (confidence 5) [F48FD5B3] (AR v2)
Copy OK

Track 7

Filename Z:\home\albicant\Music\compact_disc\music\Celtic Woman - Postcards From Ireland (2021) [CD FLAC]\07 - Where Sheep May Safely Graze.wav

Peak level 94.2 %
Extraction speed 6.7 X
Track quality 100.0 %
Test CRC CD8BE0DE
Copy CRC CD8BE0DE
Accurately ripped (confidence 5) [1171B9EA] (AR v2)
Copy OK

Track 8

Filename Z:\home\albicant\Music\compact_disc\music\Celtic Woman - Postcards From Ireland (2021) [CD FLAC]\08 - Angel.wav

Peak level 97.6 %
Extraction speed 7.1 X
Track quality 100.0 %
Test CRC 515EA66B
Copy CRC 515EA66B
Accurately ripped (confidence 5) [2C8EC2AE] (AR v2)
Copy OK

Track 9

Filename Z:\home\albicant\Music\compact_disc\music\Celtic Woman - Postcards From Ireland (2021) [CD FLAC]\09 - The Lakes of Pontchartrain.wav

Peak level 97.5 %
Extraction speed 7.3 X
Track quality 100.0 %
Test CRC 1CB2FA2B
Copy CRC 1CB2FA2B
Accurately ripped (confidence 5) [EF60CC4F] (AR v2)
Copy OK

Track 10

Filename Z:\home\albicant\Music\compact_disc\music\Celtic Woman - Postcards From Ireland (2021) [CD FLAC]\10 - May It Be.wav

Peak level 94.3 %
Extraction speed 7.3 X
Track quality 100.0 %
Test CRC A6FCC5D3
Copy CRC A6FCC5D3
Accurately ripped (confidence 5) [13E4C19F] (AR v2)
Copy OK

Track 11

Filename Z:\home\albicant\Music\compact_disc\music\Celtic Woman - Postcards From Ireland (2021) [CD FLAC]\11 - The Calm Of The Day , The Banshee.wav

Peak level 97.6 %
Extraction speed 7.4 X
Track quality 100.0 %
Test CRC 5FA36BD2
Copy CRC 5FA36BD2
Accurately ripped (confidence 5) [7B69ED9E] (AR v2)
Copy OK

Track 12

Filename Z:\home\albicant\Music\compact_disc\music\Celtic Woman - Postcards From Ireland (2021) [CD FLAC]\12 - The Galway Shawl.wav

Peak level 97.4 %
Extraction speed 7.9 X
Track quality 100.0 %
Test CRC 7E67C665
Copy CRC 7E67C665
Accurately ripped (confidence 5) [4CE24854] (AR v2)
Copy OK

Track 13

Filename Z:\home\albicant\Music\compact_disc\music\Celtic Woman - Postcards From Ireland (2021) [CD FLAC]\13 - Black Is The Colour.wav

Peak level 82.2 %
Extraction speed 6.3 X
Track quality 99.9 %
Test CRC 32D30607
Copy CRC 32D30607
Accurately ripped (confidence 5) [840D51F2] (AR v2)
Copy OK


All tracks accurately ripped

No errors occurred

End of status report

–– CUETools DB Plugin V2.1.6

[CTDB TOCID: 49SfC6IaU_H_e5Rg.3sDu_SvcIY-] found
Submit result: 49SfC6IaU_H_e5Rg.3sDu_SvcIY- has been confirmed
Track | CTDB Status
1 | (46/46) Accurately ripped
2 | (46/46) Accurately ripped
3 | (46/46) Accurately ripped
4 | (46/46) Accurately ripped
5 | (46/46) Accurately ripped
6 | (46/46) Accurately ripped
7 | (46/46) Accurately ripped
8 | (46/46) Accurately ripped
9 | (46/46) Accurately ripped
10 | (46/46) Accurately ripped
11 | (46/46) Accurately ripped
12 | (46/46) Accurately ripped
13 | (46/46) Accurately ripped


==== Log checksum 01EC3F4D3F00DB13734AF7A7F6835075BCF9036E61F7C63E2C92349B5317539B ====

Thanks to the Original ripper !